Loading...
Error

Скачать Баффало 66 / Buffalo '66 (Винсент Галло) [1997, драма, мелодрама, комедия, криминал, BDRip-AVC] [MVO]+[DVO]x3+[AVO]+[Оригинал]+[Sub] торрент без регистрации

 
Статистика раздачи
Размер:  3,46 GB   |    Скачан:  115 раз
Сидов:  1  [  0 KB/s  ]  
 
Автор Сообщение

Marsianka

[] 

Информация о фильме
Название: Баффало 66
Оригинальное название: Buffalo '66
Год выхода: 1997
Жанр: драма, мелодрама, комедия, криминал
Режиссер: Винсент Галло
В ролях: Винсент Галло, Кристина Риччи, Бен Газзара, Микки Рурк, Розанна Аркетт, Ян-Майкл Винсент, Анжелика Хьюстон, Кевин Поллак, Алекс Кэррас, Джон Сансон

О фильме:
Билли Браун только что вышел из тюрьмы. Он спешит к непонятно за что любимым родителям, и, чтобы произвести на них впечатление, по дороге захватывает заложницу. Но дома его не ждали. Более того, мать до сих пор тихо ненавидит Билли за то, что в 1966 году она пропустила исторический матч любимой команды, поскольку именно в этот момент рожала сына. Билли безуспешно пытается завоевать расположение своих ненормальных родителей. Единственный человек, который в этом сумасшедшем доме относится к Билли по-человечески, это его очаровательная заложница.



Страна: США / Cin™pix Film Properties Inc. (CFP), Lions Gate Films Inc., Muse Productions
Продолжительность: 01:49:56
Перевод: Профессиональный многоголосый, профессиональный двухголосый, авторский

Файл
Кодек: x264
Качество: BDRip-AVC
Видео: MPEG-4 AVC, 3350 Кбит/с, 1024x552, 23.976 кадр/с

Семпл
Аудио #1: Русский (AC3, 2 ch, 192 Кбит/с) / Профессиональный многоголосый (Первый канал)
Аудио #2: Русский (AC3, 2 ch, 192 Кбит/с) / Профессиональный двухголосый (Видеосервис)
Аудио #3: Русский (AC3, 2 ch, 192 Кбит/с) / Авторский одноголосый (Владимир Завгородний)
Аудио #4: Украинский (AC3, 2 ch, 192 Кбит/с) / Профессиональный двухголосый (¶нтер)
Аудио #5: Украинский (AC3, 2 ch, 192 Кбит/с) / Профессиональный двухголосый (Новий канал)
Аудио #6: Английский (AC3, 2 ch, 192 Кбит/с)
Субтитры: Английские
За исходник спасибо alextar (HDClub)
За постер спасибо: Media-Art-Club
x264 [info]: frame I:818 Avg QP:16.30 size: 85246
x264 [info]: frame P:27586 Avg QP:19.04 size: 33071
x264 [info]: frame B:129651 Avg QP:20.62 size: 13725

Format : Matroska
Format version : Version 4 / Version 2
File size : 3.46 GiB
Duration : 1h 49mn
Overall bit rate : 4 504 Kbps
Movie name : -=MediaClub - Odessit=-
Encoded date : UTC 2013-12-26 14:55:29
Writing application : mkvmerge v6.1.0 ('Old Devil') built on Mar 4 2013 09:10:42
Writing library : libebml v1.3.0 + libmatroska v1.4.0

Video
ID : 1
Format : AVC
Format/Info : Advanced Video Codec
Format profile : High@L4.1
Format settings, CABAC : Yes
Format settings, ReFrames : 9 frames
Codec ID : V_MPEG4/ISO/AVC
Duration : 1h 49mn
Bit rate : 3 350 Kbps
Width : 1 024 pixels
Height : 552 pixels
Display aspect ratio : 1.855
Frame rate : 23.976 fps
Color space : YUV
Chroma subsampling : 4:2:0
Bit depth : 8 bits
Scan type : Progressive
Bits/(Pixel*Frame) : 0.247
Stream size : 2.51 GiB (72%)
Writing library : x264 core 130 r2273 b3065e6
Encoding settings : cabac=1 / ref=9 / deblock=1:-3:-3 / analyse=0x3:0x133 / me=umh / subme=11 / psy=1 / psy_rd=1.00:0.20 / mixed_ref=1 / me_range=48 / chroma_me=1 / trellis=2 / 8x8dct=1 / cqm=0 / deadzone=21,11 / fast_pskip=0 / chroma_qp_offset=-3 / threads=6 / lookahead_threads=1 / sliced_threads=0 / nr=0 / decimate=0 / interlaced=0 / bluray_compat=0 / constrained_intra=0 / bframes=16 / b_pyramid=2 / b_adapt=2 / b_bias=0 / direct=3 / weightb=1 / open_gop=0 / weightp=2 / keyint=240 / keyint_min=23 / scenecut=40 / intra_refresh=0 / rc=2pass / mbtree=0 / bitrate=3350 / ratetol=1.0 / qcomp=0.60 / qpmin=0 / qpmax=69 / qpstep=4 / cplxblur=20.0 / qblur=0.5 / ip_ratio=1.40 / pb_ratio=1.30 / aq=1:1.00
Language : English

Audio #1
ID : 2
Format : AC-3
Format/Info : Audio Coding 3
Mode extension : CM (complete main)
Codec ID : A_AC3
Duration : 1h 49mn
Bit rate mode : Constant
Bit rate : 192 Kbps
Channel(s) : 2 channels
Channel positions : Front: L R
Sampling rate : 48.0 KHz
Bit depth : 16 bits
Compression mode : Lossy
Stream size : 151 MiB (4%)
Title : Многоголосый закадровый, Первый канал
Language : Russian

Audio #2
ID : 3
Format : AC-3
Format/Info : Audio Coding 3
Mode extension : CM (complete main)
Codec ID : A_AC3
Duration : 1h 49mn
Bit rate mode : Constant
Bit rate : 192 Kbps
Channel(s) : 2 channels
Channel positions : Front: L R
Sampling rate : 48.0 KHz
Bit depth : 16 bits
Compression mode : Lossy
Stream size : 151 MiB (4%)
Title : Двухголосый закадровый, Видеосервис
Language : Russian

Audio #3
ID : 4
Format : AC-3
Format/Info : Audio Coding 3
Mode extension : CM (complete main)
Codec ID : A_AC3
Duration : 1h 49mn
Bit rate mode : Constant
Bit rate : 192 Kbps
Channel(s) : 2 channels
Channel positions : Front: L R
Sampling rate : 48.0 KHz
Bit depth : 16 bits
Compression mode : Lossy
Stream size : 151 MiB (4%)
Title : Одноголосый закадровый, В.Завгородний
Language : Russian

Audio #4
ID : 5
Format : AC-3
Format/Info : Audio Coding 3
Mode extension : CM (complete main)
Codec ID : A_AC3
Duration : 1h 49mn
Bit rate mode : Constant
Bit rate : 192 Kbps
Channel(s) : 2 channels
Channel positions : Front: L R
Sampling rate : 48.0 KHz
Bit depth : 16 bits
Compression mode : Lossy
Stream size : 151 MiB (4%)
Title : Двухголосый закадровый, ¶нтер
Language : Ukrainian

Audio #5
ID : 6
Format : AC-3
Format/Info : Audio Coding 3
Mode extension : CM (complete main)
Codec ID : A_AC3
Duration : 1h 49mn
Bit rate mode : Constant
Bit rate : 192 Kbps
Channel(s) : 2 channels
Channel positions : Front: L R
Sampling rate : 48.0 KHz
Bit depth : 16 bits
Compression mode : Lossy
Stream size : 151 MiB (4%)
Title : Двухголосый закадровый, Новий канал
Language : Ukrainian

Audio #6
ID : 7
Format : AC-3
Format/Info : Audio Coding 3
Mode extension : CM (complete main)
Codec ID : A_AC3
Duration : 1h 49mn
Bit rate mode : Constant
Bit rate : 192 Kbps
Channel(s) : 2 channels
Channel positions : Front: L R
Sampling rate : 48.0 KHz
Bit depth : 16 bits
Compression mode : Lossy
Stream size : 151 MiB (4%)
Language : English

Text
ID : 8
Format : UTF-8
Codec ID : S_TEXT/UTF8
Codec ID/Info : UTF-8 Plain Text
Language : English

Menu
00:00:00.000 : :Chapter 01
00:03:22.201 : :Chapter 02
00:07:25.236 : :Chapter 03
00:15:06.946 : :Chapter 04
00:19:54.734 : :Chapter 05
00:28:50.186 : :Chapter 06
00:33:51.738 : :Chapter 07
00:39:12.016 : :Chapter 08
00:45:43.532 : :Chapter 09
00:52:10.126 : :Chapter 10
00:57:26.776 : :Chapter 11
01:03:11.370 : :Chapter 12
01:09:00.344 : :Chapter 13
01:17:52.834 : :Chapter 14
01:26:43.363 : :Chapter 15
01:34:14.231 : :Chapter 16
01:42:01.406 : :Chapter 17
01:45:10.262 : :Chapter 18
01:49:51.251 : :Chapter 19
Релиз от: |



Скачать Баффало.66.Buffalo.'66.(Винсент.Галло).[1997.драма.мелодрама.комедия.криминал.BDRip-AVC].[MVO]+[DVO]x3+[AVO]+[Оригинал]+[Sub].torrent без регистрации
Золото ЗОЛОТАЯ РАЗДАЧА! СКАЧАННОЕ НЕ ЗАСЧИТЫВАЕТСЯ! Золото
Дата: Зарегистрирован   [ Тип: внутренний ] Как тут cкачать?
MAGNET ссылка
MAGNET ссылка


Скачать .torrent

18 KB

Статус: проверено DHT
Скачан: торрент - 115 раз, раздача полностью - 5 раз
Размер: 3,46 GB
Оценка:  5 (Голосов: 1)
Поблагодарили: 2
Поделиться ссылкой на эту раздачу с друзьями:
В контактеFacebookОдноклассникиTwitterLivejournalМой МирLiveinternet
 

 
Показать сообщения:    


Вы не можете начинать темы
Вы не можете отвечать на сообщения
Вы не можете редактировать свои сообщения
Вы не можете удалять свои сообщения
Вы не можете голосовать в опросах
Вы не можете прикреплять файлы к сообщениям
Вы можете скачивать файлы