Loading...
Error

Скачать Месть Мехагодзиллы / Террор Мехагодзиллы / Terror of Mechagodzilla / Mekagojira no gyakushu (Исиро Хонда) [1975, фантастика, боевик, драма, приключения, DVDRip] [VO (Pr0peLLer)] торрент без регистрации

 
Статистика раздачи
Размер:  858 MB   |    Скачан:  108 раз
Сидов:  1  [  0 KB/s  ]  
 
Автор Сообщение

Dinozavr

[] 

Информация о фильме
Название: Месть Мехагодзиллы / Террор Мехагодзиллы
Оригинальное название: Terror of Mechagodzilla / Mekagojira no gyakushu
Год выхода: 1975
Жанр: фантастика, боевик, драма, приключения
Режиссер: Исиро Хонда
В ролях: Кацухико Сасаки, Томоко Аи, Акихико Хирата, Katsumasa Uchida, Горо Мицуми, Тадао Накамару, Shin Roppongi, Томое Мари, Тору Ибуки, Кэндзи Сахара

О фильме:
Пришельцы из умирающей галактики решают переселиться на Землю, уничтожив перед этим её население. Основное оружие агрессоров огромная Мехагодзилла, вооружённая лазером и ракетами. К тому же на сторону пришельцев переметнулся профессор Мафуни, контролирующий Титанозавра здоровенного монстра-амфибию. Для Годзиллы этот бой обещает быть сложным



Страна: Япония
Студия: Henry G. Saperstein Enterprises Inc., Toho Company
Продолжительность: 01:23:20
Перевод: Любительский | Slink
Озвучка: Одноголосая закадровая | Pr0peLLer

Файл
Кодек: XviD
Качество: DVDRip
Видео: 720x282 (2.553), 23.976 fps, 1237 kbps
Звук: MP3, 192 kbps, 44.1 kHz, 2/0 (L,R) ch
Субтитры: нет

Сэмпл, скачать

Автор рипа: urban92
General
Complete name : Mekagojira no Gyakushu.avi
Format : AVI
Format/Info : Audio Video Interleave
File size : 858 MiB
Duration : 1h 23mn
Overall bit rate : 1 439 Kbps
Movie name : TERROR_OF_MECHAGODZILLA.Title2.DVDRip
Writing application : VirtualDubMod 1.5.10.2 (build 2540/release)
Writing library : VirtualDubMod build 2540/release
Original source form/Name : TERROR_OF_MECHAGODZILLA

Video
ID : 0
Format : MPEG-4 Visual
Format profile : Simple@L3
Format settings, BVOP : No
Format settings, QPel : No
Format settings, GMC : No warppoints
Format settings, Matrix : Default (H.263)
Codec ID : XVID
Codec ID/Hint : XviD
Duration : 1h 23mn
Bit rate : 1 237 Kbps
Width : 720 pixels
Height : 282 pixels
Display aspect ratio : 2.553
Frame rate : 23.976 fps
Color space : YUV
Chroma subsampling : 4:2:0
Bit depth : 8 bits
Scan type : Progressive
Compression mode : Lossy
Bits/(Pixel*Frame) : 0.254
Stream size : 737 MiB (86%)
Writing library : XviD 1.2.1 (UTC 2008-12-04)

Audio
ID : 1
Format : MPEG Audio
Format version : Version 1
Format profile : Layer 3
Mode : Joint stereo
Codec ID : 55
Codec ID/Hint : MP3
Duration : 1h 23mn
Bit rate mode : Constant
Bit rate : 192 Kbps
Channel(s) : 2 channels
Sampling rate : 44.1 KHz
Compression mode : Lossy
Stream size : 114 MiB (13%)
Alignment : Split accross interleaves
Interleave, duration : 42 ms (1.00 video frame)
Interleave, preload duration : 500 ms



Скачать Месть.Мехагодзиллы.Террор.Мехагодзиллы.Terror.of.Mechagodzilla.Mekagojira.no.gyakushu.(Исиро.Хонда).[1975.фантастика.боевик.драма.приключения.DVDRip].[VO.(Pr0peLLer)].torrent без регистрации
Золото ЗОЛОТАЯ РАЗДАЧА! СКАЧАННОЕ НЕ ЗАСЧИТЫВАЕТСЯ! Золото
Дата: Зарегистрирован   [ Тип: внутренний ] Как тут cкачать?
MAGNET ссылка
MAGNET ссылка


Скачать .torrent

17 KB

Статус: проверено DHT
Скачан: торрент - 108 раз, раздача полностью - 1 раз
Размер: 858 MB
Оценка:  - (Голосов: 0)
Поблагодарили: 0
Поделиться ссылкой на эту раздачу с друзьями:
В контактеFacebookОдноклассникиTwitterLivejournalМой МирLiveinternet
 

 
Показать сообщения:    


Вы не можете начинать темы
Вы не можете отвечать на сообщения
Вы не можете редактировать свои сообщения
Вы не можете удалять свои сообщения
Вы не можете голосовать в опросах
Вы не можете прикреплять файлы к сообщениям
Вы можете скачивать файлы