Loading...
Error

Скачать Шерлок / Sherlock (Полный 3-ий сезон) (Пол МакГиган) [2014, Драма, детектив, HDTV] [1080i] [DUB] [Первый канал] торрент без регистрации

 
Статистика раздачи
Размер:  11,75 GB   |    Скачан:  296 раз
Сидов:  1  [  0 KB/s  ]  
 
Автор Сообщение

leon030982

[] 

Шерлок / Sherlock / Сезон: 03 полный

Год выпуска: 2014
Страна: Великобритания
Жанр: Детектив, Драма, Комедия
Продолжительность: 01:30:00
Перевод: Полное дублирование Первый канал
Русские субтитры: нет

Режиссёр: Джереми Лавринг, Колм Маккарти, Ник Харран

В ролях: Бенедикт Камбербэтч, Мартин Фриман, Уна Стаббс, Лу Брили, Руперт Грейвз, Марк Гатисс, Зои Телфорд, Винетт Робинсон, Таня Муди, Джонатан Арис и другие.

Описание: Сериал представляет собой современную версию книг и рассказов о приключениях Шерлока Холмса. Отсюда изменение образов главных персонажей: Холмс здесь не всегда вежлив, но всё так же гениален; в отличие от оригинального Холмса, он не употребляет наркотики и использует никотиновый пластырь. Ватсон, как и в оригинальных произведениях, служил военным врачом в Афганистане. Миссис Хадсон относится к Холмсу как к сыну, хотя и не одобряет то, что он часто приказывает ей как домработнице. Лестрейд не против сотрудничества с Холмсом, и часто сам зовёт его на помощь. Его характер из книг передан девушке-сержанту Салли Донован. Также, в отличие от книг, здесь Холмс и Ватсон называют друг друга по именам, а не по фамилиям.
Третий сезон: после смерти Шерлока проходит два года, жизнь доктора Джона Ватсона идет своим чередом. А вот над Лондоном нависает угроза разрушительной террористической атаки, и Шерлок готовит сценарий своего невероятного воскрешения. Но, если он думает, что за время его отсутствия ничего не изменилось – он будет очень удивлен…

Сэмпл: http://multi-up.com/

Релиз -

Рип чистый. Без посторонних надписей. Выкладывается как есть.
Качество: HDTV 1080i
Контейнер: TS
Видео кодек: AVC
Аудио кодек: MP2
Видео: 1920x1080 (16:9) 25.000 fps 6000 Kbps, 0.124 bit/pixel
Аудио: МР2, 2 ch, 256 Кбит/с
General
ID : 1 (0x1)
Complete name : C:\2013\Sherlock. S03E01 (2013, HDTV 1080i) (MYDIMKA).ts
Format : MPEG-TS
File size : 4.21 GiB
Duration : 1h 26mn
Overall bit rate mode : Variable
Overall bit rate : 6 974 Kbps
Maximum Overall bit rate : 35.5 Mbps
Video
ID : 4113 (0x1011)
Menu ID : 1 (0x1)
Format : AVC
Format/Info : Advanced Video Codec
Format profile : High@L4.0
Format settings, CABAC : Yes
Format settings, ReFrames : 3 frames
Codec ID : 27
Duration : 1h 26mn
Bit rate mode : Variable
Bit rate : 6 436 Kbps
Maximum bit rate : 40.0 Mbps
Width : 1 920 pixels
Height : 1 080 pixels
Display aspect ratio : 16:9
Frame rate : 25.000 fps
Standard : Component
Color space : YUV
Chroma subsampling : 4:2:0
Bit depth : 8 bits
Scan type : Interlaced
Scan order : Top Field First
Bits/(Pixel*Frame) : 0.124
Stream size : 3.89 GiB (92%)
Color primaries : BT.709
Transfer characteristics : BT.709
Matrix coefficients : BT.709
Audio
ID : 4352 (0x1100)
Menu ID : 1 (0x1)
Format : MPEG Audio
Format version : Version 1
Format profile : Layer 2
Codec ID : 4
Duration : 1h 26mn
Bit rate mode : Constant
Bit rate : 192 Kbps
Channel count : 2 channels
Sampling rate : 48.0 KHz
Compression mode : Lossy
Stream size : 119 MiB (3%)



Скачать Шерлок.Sherlock.(Полный.3-ий.сезон).(Пол.МакГиган).[2014.Драма.детектив.HDTV].[1080i].[DUB].[Первый.канал].torrent без регистрации
Золото ЗОЛОТАЯ РАЗДАЧА! СКАЧАННОЕ НЕ ЗАСЧИТЫВАЕТСЯ! Золото
Дата: Зарегистрирован   [ Тип: внутренний ] Как тут cкачать?
MAGNET ссылка
MAGNET ссылка


Скачать .torrent

16 KB

Статус: проверено DHT
Скачан: торрент - 296 раз, раздача полностью - 74 раз
Размер: 11,75 GB
Оценка:  5 (Голосов: 3)
Поблагодарили: 10
Поделиться ссылкой на эту раздачу с друзьями:
В контактеFacebookОдноклассникиTwitterLivejournalМой МирLiveinternet
 

 

leon030982

[] 

Добавлена 2-я серия az
 

leon030982

[] 

финал 3-го сезона ab
 
Показать сообщения:    


Вы не можете начинать темы
Вы не можете отвечать на сообщения
Вы не можете редактировать свои сообщения
Вы не можете удалять свои сообщения
Вы не можете голосовать в опросах
Вы не можете прикреплять файлы к сообщениям
Вы можете скачивать файлы