Loading...
Error

Скачать Китайская шкатулка / Chinese box (Уэйн Уэнг) [1997, мелодрама, драма, DVDRip-AVC] [MVO] торрент без регистрации

 
Статистика раздачи
Размер:  1,91 GB   |    Скачан:  131 раз
Сидов:  1  [  0 KB/s  ]  
 
Автор Сообщение

Marsianka

[] 

Информация о фильме
Название: Китайская шкатулка
Оригинальное название: Chinese box
Год выхода: 1997
Жанр: мелодрама, драма
Режиссер: Уэйн Уэнг / Wayne Wang
В ролях: Джереми Айронс, Гон Ли, Мэгги Чун, Майкл Юи, Рубен Блэйдс, Джаред Харрис, Чаплин Чэнг, Ноэль Рэндс, Эмма Лусиа, Кен Беннетт, Расселл Кауторн, Эмоушн Чунг, Джонатан Миджли, Брюс Уокер, Анжелика Лофгрен, доктор Джулиан Чэнг, Рюи Чао Чжан, Син Чау Вай, Ло Юн, Ширли Юн, Мишель Йеун, Алекс Нг, Ва Ли Чиу, Мария Кордеро, Пао Фунг, Фан Юи, Ман Ченг Лам, Сиу-Кей Леун, Юн Фат Це, Родерик Ли, Юи Ли, Мария Сент Линн, Джозефин Хо, Глория Ву

О фильме:
Английский журналист Джон уже шестнадцать лет работает в Гонконге. Безнадежно влюблен в китаянку Вивьен, бывшую проститутку. Уже много раз предлагал ей руку и сердце, но она надеется, что ее мужем станет китаец, в баре которого Вивьен предлагает клиентам напитки. Но китаец не может жениться на женщине с таким прошлым, традиции деловых кругов связывают его по рукам и ногам. Они живут вместе, но, кроме своей любви, большего предложить он не в силах. Джон, подверженный приступам головокружения, обращается к врачам и узнает, что у него смертельная форма лейкемии. И в этот момент Вивьен сама приходит к нему, после того как ей становится ясно, что китайской семьи ей никогда не создать. И в этот же момент, собирая материал об уличной девчонке с ужасным шрамом на щеке, Джон случайно узнает о том, что Вивьен в прошлом работала в "эскорте"...



Страна: Франция / Япония / США
Студия: Canal+, NDF International, Pony Canyon
Продолжительность: 01:35:04
Перевод: Профессиональный (многоголосый, закадровый)

Файл
Кодек: h.264
Качество: DVDRip-AVC
Видео: 688x544 (16:9) @ 982x544 (анаморф), 25.000 fps, AVC, ~2513 Kbps, 0.269 bits/pixel
Английский, 48.0 KHz, AC3, 2 ch, 192 Kbps
Русский, 48.0 KHz, AC3, 1 ch, 112 Kbps
Субтитры: нет
Источник видео R2
Общее
Уникальный идентификатор : 189147739222503573621105162954012091591 (0x8E4C878C8982D839A3851F53E61FE4C7)
Полное имя : D:FilmsKitaiskaya_shkatulka.1997.DVDRip-AVC.mkv
Формат : Matroska
Версия формата : Version 4 / Version 2
Размер файла : 1,91 Гбайт
Продолжительность : 1 ч. 35 м.
Общий поток : 2874 Кбит/сек
Дата кодирования : UTC 2014-01-02 12:23:39
Программа кодирования : mkvmerge v6.6.0 ('The Edge Of The In Between') built on Dec 1 2013 17:55:00
Библиотека кодирования : libebml v1.3.0 + libmatroska v1.4.1

Видео
Идентификатор : 1
Формат : AVC
Формат/Информация : Advanced Video Codec
Профиль формата : High@L4.1
Параметр CABAC формата : Да
Параметр ReFrames формата : 16 кадров
Идентификатор кодека : V_MPEG4/ISO/AVC
Продолжительность : 1 ч. 35 м.
Битрейт : 2513 Кбит/сек
Ширина : 688 пикселей
Высота : 544 пикселя
Соотношение сторон : 16:9
Соотношение сторон в оригинале : 16:9
Режим частоты кадров : Постоянный
Частота кадров : 25,000 кадров/сек
Цветовое пространство : YUV
Субдискретизация насыщенности : 4:2:0
Битовая глубина : 8 бит
Тип развёртки : Прогрессивная
Бит/(Пиксели*Кадры) : 0.269
Размер потока : 1,67 Гбайт (87%)
Библиотека кодирования : x264 core 138 r2358 9e941d1
Настройки программы : cabac=1 / ref=16 / deblock=1:0:0 / analyse=0x3:0x133 / me=umh / subme=10 / psy=1 / psy_rd=1.05:0.10 / mixed_ref=1 / me_range=32 / chroma_me=1 / trellis=2 / 8x8dct=1 / cqm=0 / deadzone=21,11 / fast_pskip=0 / chroma_qp_offset=-3 / threads=8 / lookahead_threads=2 / sliced_threads=0 / nr=0 / decimate=0 / interlaced=0 / bluray_compat=0 / constrained_intra=0 / bframes=10 / b_pyramid=2 / b_adapt=2 / b_bias=0 / direct=3 / weightb=1 / open_gop=0 / weightp=2 / keyint=250 / keyint_min=25 / scenecut=40 / intra_refresh=0 / rc_lookahead=60 / rc=crf / mbtree=0 / crf=17.5 / qcomp=0.60 / qpmin=0 / qpmax=60 / qpstep=4 / vbv_maxrate=50000 / vbv_bufsize=62500 / crf_max=0.0 / nal_hrd=none / ip_ratio=1.40 / pb_ratio=1.30 / aq=2:1.00
Default : Нет
Forced : Нет
Коэффициенты матрицы : BT.601

Аудио #1
Идентификатор : 2
Формат : AC-3
Формат/Информация : Audio Coding 3
Расширение режима : CM (complete main)
Параметр Endianness формата : Big
Идентификатор кодека : A_AC3
Продолжительность : 1 ч. 35 м.
Вид битрейта : Постоянный
Битрейт : 192 Кбит/сек
Каналы : 2 канала
Расположение каналов : Front: L R
Частота : 48,0 КГц
Битовая глубина : 16 бит
Метод сжатия : С потерями
Размер потока : 131 Мбайт (7%)
Язык : English
Default : Нет
Forced : Нет

Аудио #2
Идентификатор : 3
Формат : AC-3
Формат/Информация : Audio Coding 3
Расширение режима : CM (complete main)
Параметр Endianness формата : Big
Идентификатор кодека : A_AC3
Продолжительность : 1 ч. 35 м.
Вид битрейта : Постоянный
Битрейт : 112 Кбит/сек
Каналы : 1 канал
Расположение каналов : Front: C
Частота : 48,0 КГц
Битовая глубина : 16 бит
Метод сжатия : С потерями
Размер потока : 76,2 Мбайт (4%)
Язык : Russian
Default : Да
Forced : Нет

Меню
00:00:00.000 : en:Chapter 01
00:08:00.360 : en:Chapter 02
00:12:02.600 : en:Chapter 03
00:16:32.760 : en:Chapter 04
00:22:10.280 : en:Chapter 05
00:27:29.000 : en:Chapter 06
00:32:41.280 : en:Chapter 07
00:37:57.240 : en:Chapter 08
00:40:31.280 : en:Chapter 09
00:47:08.680 : en:Chapter 10
00:50:50.960 : en:Chapter 11
00:55:18.160 : en:Chapter 12
01:00:29.360 : en:Chapter 13
01:04:40.920 : en:Chapter 14
01:11:12.280 : en:Chapter 15
01:15:37.360 : en:Chapter 16
01:21:35.840 : en:Chapter 17
01:27:53.880 : en:Chapter 18
Релиз от: Temperest



Скачать Китайская.шкатулка.Chinese.box.(Уэйн.Уэнг).[1997.мелодрама.драма.DVDRip-AVC].[MVO].torrent без регистрации
Золото ЗОЛОТАЯ РАЗДАЧА! СКАЧАННОЕ НЕ ЗАСЧИТЫВАЕТСЯ! Золото
Дата: Зарегистрирован   [ Тип: внутренний ] Как тут cкачать?
MAGNET ссылка
MAGNET ссылка


Скачать .torrent

20 KB

Статус: проверено DHT
Скачан: торрент - 131 раз, раздача полностью - 7 раз
Размер: 1,91 GB
Оценка:  - (Голосов: 0)
Поблагодарили: 1
Поделиться ссылкой на эту раздачу с друзьями:
В контактеFacebookОдноклассникиTwitterLivejournalМой МирLiveinternet
 

 
Показать сообщения:    


Вы не можете начинать темы
Вы не можете отвечать на сообщения
Вы не можете редактировать свои сообщения
Вы не можете удалять свои сообщения
Вы не можете голосовать в опросах
Вы не можете прикреплять файлы к сообщениям
Вы можете скачивать файлы