Loading...
Error

Скачать Шерлок / Sherlock (сезон 03) (Пол МакГиган) [2014, драма, триллер, криминал, детектив, HDTVRip-AVC] [Dub (Первый канал)] торрент без регистрации

 
Статистика раздачи
Размер:  5,04 GB   |    Скачан:  280 раз
Сидов:  1  [  0 KB/s  ]  
 
Автор Сообщение

МихаНЕзатор

[] 



Информация о фильме

Название: Шерлок
Оригинальное название: Sherlock
Год выпуска: 2014
Жанр: Драма, триллер, криминал, детектив
Выпущено: Великобритания, Hartswood Films, BBC Wales, Masterpiece Theatre
Режиссер: Пол МакГиган

В ролях: Бенедикт Камбербэтч, Мартин Фриман, Уна Стаббс, Эндрю Скотт, Лара Пулвер, Лу Брили, Руперт Грейвз, Марк Гатисс, Винетт Робинсон, Джонатан Арис

О фильме: В третьем сезоне, главному герою предстоит столкнуться с коварным злодеем Чарльзом Огастесом Магнуссеном. Его прототипом стал преступник, образ которого был создан самим Артуром Конан Дойлем в одном из рассказов («Конец Чарльза Огастеса Милвертона»).



Файл
Качество: HDTVRip (AVC)
Видео: MPEG-4 AVC, ~ 2500 Кбит/с, 1024x576, 25 кадр/с
Аудио: МР2, 2 ch, 256 Кбит/с
Размер: 5.04 ГБ
Продолжительность: 3 x ~ 01:30:00
Перевод: Дублированный (Первый канал)

За исходник, большое спасибо nikolspup

Релиз от: Rip by:

АНОНСЫ ПОПУЛЯРНЫХ РАЗДАЧ


14.01.2014 г. торент обновлён, добавлена 3я серия!

01. Пустой Катафалк / The Empty Hearse
02. Знак трех / The Sign of Three
03. Последняя клятва / His Last Vow

Общее
Уникальный идентификатор : 211597316170722710752985559547566751615 (0x9F30292607431483A7643FFE1935FF7F)
Полное имя : C:ЗагрузкиSherlock.s03.TV.2014.ExKinoRaySherlock.s03e01.2014.x264.HD-TVRip(AVC).ExKinoRay.mkv
Формат : Matroska
Версия формата : Version 2
Размер файла : 1,66 Гбайт
Продолжительность : 1 ч. 26 м.
Общий поток : 2758 Кбит/сек
Название фильма : Шерлок.3 сезон.1-я серия.(Пустой Катафалк).2014. Rip by: ollan
Дата кодирования : UTC 2014-01-02 23:12:01
Программа кодирования : mkvmerge v5.6.0 ('Kenya Kane') built on May 27 2012 16:44:04
Библиотека кодирования : libebml v1.2.3 + libmatroska v1.3.0

Видео
Идентификатор : 1
Формат : AVC
Формат/Информация : Advanced Video Codec
Профиль формата : High@L4.1
Параметр CABAC формата : Да
Параметр ReFrames формата : 9 кадров
Идентификатор кодека : V_MPEG4/ISO/AVC
Продолжительность : 1 ч. 26 м.
Битрейт : 2500 Кбит/сек
Ширина : 1024 пикселя
Высота : 576 пикселей
Соотношение сторон : 16:9
Режим частоты кадров : Постоянный
Частота кадров : 25,000 кадров/сек
Цветовое пространство : YUV
Субдискретизация насыщенности : 4:2:0
Битовая глубина : 8 бит
Тип развёртки : Прогрессивная
Бит/(Пиксели*Кадры) : 0.170
Размер потока : 1,48 Гбайт (89%)
Библиотека кодирования : x264 core 125 r2200 999b753
Настройки программы : cabac=1 / ref=9 / deblock=1:-2:-2 / analyse=0x3:0x133 / me=umh / subme=11 / psy=1 / psy_rd=1.00:0.10 / mixed_ref=1 / me_range=32 / chroma_me=1 / trellis=2 / 8x8dct=1 / cqm=0 / deadzone=21,11 / fast_pskip=0 / chroma_qp_offset=-3 / threads=12 / lookahead_threads=2 / sliced_threads=0 / nr=0 / decimate=0 / interlaced=0 / bluray_compat=0 / constrained_intra=0 / bframes=9 / b_pyramid=2 / b_adapt=2 / b_bias=0 / direct=3 / weightb=1 / open_gop=0 / weightp=2 / keyint=250 / keyint_min=25 / scenecut=40 / intra_refresh=0 / rc_lookahead=40 / rc=2pass / mbtree=1 / bitrate=2500 / ratetol=1.0 / qcomp=0.60 / qpmin=0 / qpmax=69 / qpstep=4 / cplxblur=20.0 / qblur=0.5 / vbv_maxrate=50000 / vbv_bufsize=62500 / nal_hrd=none / ip_ratio=1.40 / aq=1:1.00
Default : Да
Forced : Нет

Аудио
Идентификатор : 2
Формат : MPEG Audio
Версия формата : Version 1
Профиль формата : Layer 2
Идентификатор кодека : A_MPEG/L2
Идентификатор кодека/Подсказка : MP2
Продолжительность : 1 ч. 26 м.
Вид битрейта : Постоянный
Битрейт : 256 Кбит/сек
Каналы : 2 канала
Частота : 48,0 КГц
Метод сжатия : С потерями
Размер потока : 158 Мбайт (9%)
Язык : Russian
Default : Да
Forced : Нет

Общее
Уникальный идентификатор : 250503113155327539118174599854667554091 (0xBC752509AB983D34A5670724CD435D2B)
Полное имя : C:ЗагрузкиSherlock.s03.TV.2014.ExKinoRaySherlock.s03e02.2014.x264.HD-TVRip(AVC).ExKinoRay.mkv
Формат : Matroska
Версия формата : Version 2
Размер файла : 1,66 Гбайт
Продолжительность : 1 ч. 25 м.
Общий поток : 2758 Кбит/сек
Название фильма : Шерлок.3 сезон.2-я серия.(Знак Трёх).2014. Rip by: ollan
Дата кодирования : UTC 2014-01-06 03:09:07
Программа кодирования : mkvmerge v5.6.0 ('Kenya Kane') built on May 27 2012 16:44:04
Библиотека кодирования : libebml v1.2.3 + libmatroska v1.3.0

Видео
Идентификатор : 1
Формат : AVC
Формат/Информация : Advanced Video Codec
Профиль формата : High@L4.1
Параметр CABAC формата : Да
Параметр ReFrames формата : 9 кадров
Идентификатор кодека : V_MPEG4/ISO/AVC
Продолжительность : 1 ч. 25 м.
Битрейт : 2500 Кбит/сек
Ширина : 1024 пикселя
Высота : 576 пикселей
Соотношение сторон : 16:9
Режим частоты кадров : Постоянный
Частота кадров : 25,000 кадров/сек
Цветовое пространство : YUV
Субдискретизация насыщенности : 4:2:0
Битовая глубина : 8 бит
Тип развёртки : Прогрессивная
Бит/(Пиксели*Кадры) : 0.170
Размер потока : 1,47 Гбайт (89%)
Библиотека кодирования : x264 core 125 r2200 999b753
Настройки программы : cabac=1 / ref=9 / deblock=1:-2:-2 / analyse=0x3:0x133 / me=umh / subme=11 / psy=1 / psy_rd=1.00:0.10 / mixed_ref=1 / me_range=32 / chroma_me=1 / trellis=2 / 8x8dct=1 / cqm=0 / deadzone=21,11 / fast_pskip=0 / chroma_qp_offset=-3 / threads=12 / lookahead_threads=2 / sliced_threads=0 / nr=0 / decimate=0 / interlaced=0 / bluray_compat=0 / constrained_intra=0 / bframes=9 / b_pyramid=2 / b_adapt=2 / b_bias=0 / direct=3 / weightb=1 / open_gop=0 / weightp=2 / keyint=250 / keyint_min=25 / scenecut=40 / intra_refresh=0 / rc_lookahead=40 / rc=2pass / mbtree=1 / bitrate=2500 / ratetol=1.0 / qcomp=0.60 / qpmin=0 / qpmax=69 / qpstep=4 / cplxblur=20.0 / qblur=0.5 / vbv_maxrate=50000 / vbv_bufsize=62500 / nal_hrd=none / ip_ratio=1.40 / aq=1:1.00
Default : Да
Forced : Нет

Аудио
Идентификатор : 2
Формат : MPEG Audio
Версия формата : Version 1
Профиль формата : Layer 2
Идентификатор кодека : A_MPEG/L2
Идентификатор кодека/Подсказка : MP2
Продолжительность : 1 ч. 25 м.
Вид битрейта : Постоянный
Битрейт : 256 Кбит/сек
Каналы : 2 канала
Частота : 48,0 КГц
Метод сжатия : С потерями
Размер потока : 157 Мбайт (9%)
Язык : Russian
Default : Да
Forced : Нет



Скачать Шерлок.Sherlock.(сезон.03).(Пол.МакГиган).[2014.драма.триллер.криминал.детектив.HDTVRip-AVC].[Dub.(Первый.канал)].torrent без регистрации
Золото ЗОЛОТАЯ РАЗДАЧА! СКАЧАННОЕ НЕ ЗАСЧИТЫВАЕТСЯ! Золото
Дата: Зарегистрирован   [ Тип: внутренний ] Как тут cкачать?
MAGNET ссылка
MAGNET ссылка


Скачать .torrent

13 KB

Статус: проверено DHT
Скачан: торрент - 280 раз, раздача полностью - 113 раз
Размер: 5,04 GB
Оценка:  5 (Голосов: 2)
Поблагодарили: 7
Поделиться ссылкой на эту раздачу с друзьями:
В контактеFacebookОдноклассникиTwitterLivejournalМой МирLiveinternet
 

 

МихаНЕзатор

[] 

Раздача обновлена.
 
Показать сообщения:    


Вы не можете начинать темы
Вы не можете отвечать на сообщения
Вы не можете редактировать свои сообщения
Вы не можете удалять свои сообщения
Вы не можете голосовать в опросах
Вы не можете прикреплять файлы к сообщениям
Вы можете скачивать файлы