Loading...
Error

Скачать Вне подозрений / Above Suspicion (Сезон 01, серии 1-2 из 2) (Кристофер Менол) [2009, детектив, DVDRip] [DVO] (студия "Райдо") торрент без регистрации

 
Статистика раздачи
Размер:  1,07 GB   |    Скачан:  129 раз
Сидов:  1  [  0 KB/s  ]  
 
Автор Сообщение

leon030982

[] 

Вне подозрений / Above Suspicion (Сезон 01, серии 1-2 из 2)



Год выпуска: 2009
Страна: Великобритания
Жанр: детектив
Продолжительность: 1 х - 01:08:26, 2 х - 00:46:16
Перевод: Любительский (двухголосый, закадровый) [студия "Райдо"]
Озвучено по субтитрам Нотабеноид.
Русские субтитры: нет
Субтитры: отсутствуют

Режиссёр: Кристофер Менол

В ролях: Келли Райлли, Кьяран Хайндс, Джейсон Дурр, Шон Дингуолл, Даниэль Кальтаджироне, Мишель Холмс, Аманда Лоуренс, Джон Сэвидент, Мартин Хердман, Надя Кэмерон-Блэйки

Описание: Британский сериал по бестселлеру Линды Лаплант, криминальная драма о молодом и амбициозном офицере полиции Анне Трэвис, которая быстро продвигается по служебной лестнице и работает буквально на грани, чтобы добиться того же успеха как и ее отец. Ее первым делом становится поиски жестокого серийного убийцы...



Качество: DVDRip
Формат: AVI
Видео кодек: XviD
Аудио кодек: MP3
Видео: XviD, 640x352, 1 288 kbps, 16:9, 25.0 fps, 0.229 bit/pixel
Аудио: MP3, 48.0 KHz, 2ch, 192 kbps
E:\Кино\Above Suspicion 01x01_1.avi
General
Complete name : E:\Кино\Above Suspicion 01x01_1.avi
Format : AVI
Format/Info : Audio Video Interleave
File size : 731 MiB
Duration : 1h 8mn
Overall bit rate : 1 493 Kbps
Writing application : Lavf54.3.100
Video #0
ID : 0
Format : MPEG-4 Visual
Format profile : Advanced Simple@L5
Format settings, BVOP : 2
Format settings, QPel : No
Format settings, GMC : No warppoints
Format settings, Matrix : Default (H.263)
Muxing mode : Packed bitstream
Codec ID : XVID
Codec ID/Hint : XviD
Duration : 1h 8mn
Bit rate : 1 288 Kbps
Width : 640 pixels
Height : 352 pixels
Display aspect ratio : 16:9
Frame rate : 25.000 fps
Color space : YUV
Chroma subsampling : 4:2:0
Bit depth : 8 bits
Scan type : Progressive
Compression mode : Lossy
Bits/(Pixel*Frame) : 0.229
Stream size : 631 MiB (86%)
Writing library : XviD 1.2.1 (UTC 2008-12-04)
Audio #1
ID : 1
Format : MPEG Audio
Format version : Version 1
Format profile : Layer 3
Codec ID : 55
Codec ID/Hint : MP3
Duration : 1h 8mn
Bit rate mode : Constant
Bit rate : 192 Kbps
Channel(s) : 2 channels
Sampling rate : 48.0 KHz
Compression mode : Lossy
Stream size : 94.0 MiB (13%)
Alignment : Aligned on interleaves
Interleave, duration : 24 ms (0.60 video frame)
Interleave, preload duration : 24 ms



Скачать Вне.подозрений.Above.Suspicion.(Сезон.01.серии.1-2.из.2).(Кристофер.Менол).[2009.детектив.DVDRip].[DVO].(студия."Райдо").torrent без регистрации
Золото ЗОЛОТАЯ РАЗДАЧА! СКАЧАННОЕ НЕ ЗАСЧИТЫВАЕТСЯ! Золото
Дата: Зарегистрирован   [ Тип: внутренний ] Как тут cкачать?
MAGNET ссылка
MAGNET ссылка


Скачать .torrent

11 KB

Статус: проверено DHT
Скачан: торрент - 129 раз, раздача полностью - 27 раз
Размер: 1,07 GB
Оценка:  5 (Голосов: 1)
Поблагодарили: 1
Поделиться ссылкой на эту раздачу с друзьями:
В контактеFacebookОдноклассникиTwitterLivejournalМой МирLiveinternet
 

 

leon030982

[] 

Второй сезон сериала тут ---
Вне подозрений-2: Красный Георгин / Above Suspicion-2: The Red Dahlia
 
Показать сообщения:    


Вы не можете начинать темы
Вы не можете отвечать на сообщения
Вы не можете редактировать свои сообщения
Вы не можете удалять свои сообщения
Вы не можете голосовать в опросах
Вы не можете прикреплять файлы к сообщениям
Вы можете скачивать файлы