Loading...
Error

Скачать Вне подозрений-2: Красный Георгин / Above Suspicion-2: The Red Dahlia (Сезон 02, серии 1-3 из 3) (Жиль Макиннон / Gillies Mackinnon) [2010, триллер, HDTVRip] [DVO] (студия "Райдо") торрент без регистрации

 
Статистика раздачи
Размер:  1,08 GB   |    Скачан:  104 раза
Сидов:  1  [  0 KB/s  ]  
 
Автор Сообщение

leon030982

[] 

Вне подозрений-2: Красный Георгин / Above Suspicion-2: The Red Dahlia / Сезон 02



Год выпуска: 2010
Страна: Великобритания
Жанр: детектив
Продолжительность: 3 х ~ 00:46:30
Перевод: Любительский (двухголосый, закадровый) [студия "Райдо"]
Озвучено по субтитрам Нотабеноид.
Русские субтитры: нет
Субтитры: отсутствуют

Режиссёр: Жиль Макиннон / Gillies Mackinnon

В ролях: Келли Райлли, Кьяран Хайндс, Джейсон Дурр, Шон Дингуолл, Даниэль Кальтаджироне, Мишель Холмс, Аманда Лоуренс, Джон Сэвидент, Мартин Хердман, Надя Кэмерон-Блэйки

Описание: Британский сериал по бестселлеру Линды Лаплант, криминальная драма о молодом и амбициозном офицере полиции Анне Трэвис, которая быстро продвигается по служебной лестнице и работает буквально на грани, чтобы добиться того же успеха как и ее отец. Ее первым делом становится поиски жестокого серийного убийцы...



Качество: HDTVRip
Формат: AVI
Видео кодек: XviD
Аудио кодек: MP3
Видео: 624x352 (1.77:1), 25 fps, XviD build 50 ~907 kbps avg, 0.17 bit/pixel
Аудио: 48 kHz, MPEG Layer 3, 2 ch, ~192.00 kbps avg
General
Complete name : E:\INTERNET\Above Suspicion - 2\Красный Георгин_1.avi
Format : AVI
Format/Info : Audio Video Interleave
File size : 370 MiB
Duration : 46mn 30s
Overall bit rate : 1 113 Kbps
Writing application : Lavf54.3.100

Video
ID : 0
Format : MPEG-4 Visual
Format profile : Advanced Simple@L5
Format settings, BVOP : 2
Format settings, QPel : No
Format settings, GMC : No warppoints
Format settings, Matrix : Default (H.263)
Codec ID : XVID
Codec ID/Hint : XviD
Duration : 46mn 29s
Bit rate : 908 Kbps
Width : 624 pixels
Height : 352 pixels
Display aspect ratio : 16:9
Frame rate : 25.000 fps
Color space : YUV
Chroma subsampling : 4:2:0
Bit depth : 8 bits
Scan type : Progressive
Compression mode : Lossy
Bits/(Pixel*Frame) : 0.165
Stream size : 302 MiB (82%)
Writing library : XviD 1.2.1 (UTC 2008-12-04)

Audio
ID : 1
Format : MPEG Audio
Format version : Version 1
Format profile : Layer 3
Codec ID : 55
Codec ID/Hint : MP3
Duration : 46mn 30s
Bit rate mode : Constant
Bit rate : 192 Kbps
Channel(s) : 2 channels
Sampling rate : 48.0 KHz
Compression mode : Lossy
Stream size : 63.9 MiB (17%)
Alignment : Aligned on interleaves
Interleave, duration : 24 ms (0.60 video frame)
Interleave, preload duration : 24 ms



Скачать Вне.подозрений-2.Красный.Георгин.Above.Suspicion-2.The.Red.Dahlia.(Сезон.02.серии.1-3.из.3).(Жиль.Макиннон.Gillies.Mackinnon).[2010.триллер.HDTVRip].[DVO].(студия."Райдо").torrent без регистрации
Золото ЗОЛОТАЯ РАЗДАЧА! СКАЧАННОЕ НЕ ЗАСЧИТЫВАЕТСЯ! Золото
Дата: Зарегистрирован   [ Тип: внутренний ] Как тут cкачать?
MAGNET ссылка
MAGNET ссылка


Скачать .torrent

12 KB

Статус: проверено DHT
Скачан: торрент - 104 раз, раздача полностью - 41 раз
Размер: 1,08 GB
Оценка:  - (Голосов: 0)
Поблагодарили: 0
Поделиться ссылкой на эту раздачу с друзьями:
В контактеFacebookОдноклассникиTwitterLivejournalМой МирLiveinternet
 

 
Показать сообщения:    


Вы не можете начинать темы
Вы не можете отвечать на сообщения
Вы не можете редактировать свои сообщения
Вы не можете удалять свои сообщения
Вы не можете голосовать в опросах
Вы не можете прикреплять файлы к сообщениям
Вы можете скачивать файлы