Loading...
Error

Скачать Сексмиссия / Новые Амазонки / Seksmisja (Юлиуш Махульский) [1983, фантастика, комедия, приключения, HDTVRip] [MVO] торрент без регистрации

 
Статистика раздачи
Размер:  1,46 GB   |    Скачан:  126 раз
Сидов:  24  [  0 KB/s  ]   Личеров:  1  [  0 KB/s  ]  
 
Автор Сообщение

Marsianka

[] 

Страна: Польша
Производство: Zespol Filmowy "Kadr"
Жанр: фантастика, комедия, приключения
Год выпуска: 1983
Продолжительность: 01:54:34

Перевод: Профессиональный (многоголосый закадровый)
Оригинальная аудиодорожка: нет
Cубтитры: нет

Режиссер: Юлиуш Махульский / Juliusz Machulski

В ролях:
Ольгерд Лукашевич, Ежи Штур, Божена Стрыйкувна, Богуслава Павелец, Ханна Станкувна, Беата Тышкевич, Рышарда Ханин, Барбара Людвижанка, Мирослава Мархелюк, Ханна Микуць...

Описание:
Альберт и Максимилиан соглашаются стать участниками эксперимента профессора Куппельвайзера: они, двое молодых мужчин лет 30-ти, в интересах науки должны быть заморожены сроком на 3 года. Однако за время, проведенное ими в специальных капсулах, на Земле многое изменилось, и потому Альбертика с Максом разморозили не через три года, а через полвека с лишним. В 2044 году. Когда «вымерли» все мужчины, и «других самцов», кроме парочки размороженных, больше нигде не осталось.
«Амазонки 21-го века» живут в глубоком подземелье, благополучно разрешив проблему размножения без оплодотворения, и не нуждаются в присутствии особей мужского пола. С риском для собственной жизни Альберт и Макс вынуждены приступить к выполнению «сексмиссии»



Исходник: HDTV 1080i
Тип релиза: HDTVRip
Контейнер: AVI

Видео: 720x400 (16:9), 25 fps, XviD ~ 1427 kbps avg, 0.198 bit/pixel
Аудио: 48 kHz, Dolby Digital AC3 5.1, 384 kbps

Раздача от:

Общее
Полное имя : Seksmisja.1983.HDTVRip_[New-team]_by_AVP_Studio.avi
Формат : AVI
Формат/Информация : Audio Video Interleave
Размер файла : 1,46 Гбайт
Продолжительность : 1 ч. 54 м.
Общий поток : 1820 Кбит/сек
Программа кодирования : VirtualDubModRus 1.5.10.2 (build 2542/release)
Библиотека кодирования : VirtualDubMod build 2542/release

Видео
Идентификатор : 0
Формат : MPEG-4 Visual
Профиль формата : Advanced Simple@L5
Параметр BVOP формата : 1
Параметр QPel формата : Нет
Параметр GMC формата : Без точки перехода
Параметр матрицы формата : Выборочная
Идентификатор кодека : XVID
Идентификатор кодека/Подсказка : XviD
Продолжительность : 1 ч. 54 м.
Битрейт : 1427 Кбит/сек
Ширина : 720 пикселей
Высота : 400 пикселей
Соотношение сторон : 16:9
Частота кадров : 25,000 кадров/сек
Цветовое пространство : YUV
Субдискретизация насыщенности : 4:2:0
Битовая глубина : 8 бит
Тип развёртки : Прогрессивная
Метод сжатия : С потерями
Бит/(Пиксели*Кадры) : 0.198
Размер потока : 1,14 Гбайт (78%)
Библиотека кодирования : XviD 73

Аудио
Идентификатор : 1
Формат : AC-3
Формат/Информация : Audio Coding 3
Расширение режима : CM (complete main)
Идентификатор кодека : 2000
Продолжительность : 1 ч. 54 м.
Вид битрейта : Постоянный
Битрейт : 384 Кбит/сек
Каналы : 6 каналов
Расположение каналов : Front: L C R, Side: L R, LFE
Частота : 48,0 КГц
Битовая глубина : 16 бит
Метод сжатия : С потерями
Задержка видео : 16 мс.
Размер потока : 315 Мбайт (21%)
Выравнивание : Разделение по промежуткам
Продолжительность промежутка : 40 мс. (1,00 видеокадр)
Время предзагрузки промежутка : 500 мс

Роль Её Превосходительства исполнивший её комедийный актёр театра и кино Веслав Михниковский посвятил театральному режиссёру Эрвину Аксеру.
Эпиграфом к фильму взят афоризм польского писателя, драматурга и эссеиста Славомира Мрожека: «Завтра это сегодня, только завтра» (польск. Jutro to dzi tyle, ,e jutro).
Выбранное датой начала сюжета 9 августа день рождения тогдашней жены Юлиуша Махульского Божены Стрыйкувны, игравшей в этом фильме роль Ламии.
В фильме присутствуют отсылки к фильмам «Ва-банк» и «Ва-банк 2»:
1. В отображаемом на экране списке пансионерок «Приюта заслуженной старости», перед фамилией Юлии Новак (с которой будет встречаться Ламия), отображается: «Квинто, Элла 65». Возглавляет список фамилия «Одерматт, Урса 70» третья сверху фамилия «Ковальски, Ана 69». Последняя фамилия «Mac choolskee (=Махульский), Аста 64».
2. Когда Макс с Альбертом сбегают из зала суда, после этажа с бассейном, они наугад попадают на какой-то закрытый этаж, на вход в который, очевидно, нужно иметь специальный допуск. Прямо напротив раскрывшихся дверей лифта они видят полосатый шлагбаум и девушку в защитной мотоциклетной каске и перчатках, которая говорит им по-немецки: «Добрый день, паспортный контроль. Прошу Ваши документы».
3. После этого в холле они встречают чёрнокожую девушку с далматином. На её вопрос про отель (который она задает по-польски), Макс отвечает ей по-немецки той же фразой, которую говорит кассир швейцарского банка, когда Квинто предъявляет кассиру чек, подписанный Крамером: «Ein moment, bitte».
В качестве дома второй половины XX века, в котором оказываются главные герои в конце фильма, была использована та же загородная вилла, со многими вещами из той же обстановки, что и в чуть ранее снятом фильме «Ва-банк 2» (на которой оказываются Крамер со Штыцем, когда их якобы «переправляют» в Швейцарию). В частности, комната на втором этаже и кровать, на которой Макс предлагает Ламии «традиционный контакт», та же самая, на которой пьяный Крамер ночью спит и наутро обнаруживает себя прикованым к начальнику тюрьмы. А комната с подиумом, в которой Макс и Альберт ловят «Её Превосходительство», равно как и рыжий диван, на котором они перед этим сидят и курят, тот же самый, на котором спит пьяный Штыц, убегая наутро через окно. Это строение сохранилось до сегодняшнего дня и находится в Польше, город Лодзь, район Леба, по адресу: сЈd*, ul. Raduфska, 19.
В газете, найденной Максом и Альбертом в сапогах, на польском языке только заголовки: сами статьи по-французски.
В 2012 и 2013 годах на разных каналах российского телевидения стали демонстрироваться версии фильма, урезанные даже в большей степени, нежели в советском кинопрокате. Несмотря на показ фильма в ночное время, из него удаляются практически все сцены, в которых фигурируют обнажённые женщины.



Скачать Сексмиссия.Новые.Амазонки.Seksmisja.(Юлиуш.Махульский).[1983.фантастика.комедия.приключения.HDTVRip].[MVO].torrent без регистрации
Золото ЗОЛОТАЯ РАЗДАЧА! СКАЧАННОЕ НЕ ЗАСЧИТЫВАЕТСЯ! Золото
Дата: Зарегистрирован   [ Тип: внешний ] Как тут cкачать?
MAGNET ссылка
MAGNET ссылка


Скачать .torrent

15 KB

Статус: проверено DHT
Скачан: торрент - 126 раз, раздача полностью - 19 раз
Размер: 1,46 GB
Оценка:  - (Голосов: 0)
Поблагодарили: 1
Поделиться ссылкой на эту раздачу с друзьями:
В контактеFacebookОдноклассникиTwitterLivejournalМой МирLiveinternet
 

 
Показать сообщения:    


Вы не можете начинать темы
Вы не можете отвечать на сообщения
Вы не можете редактировать свои сообщения
Вы не можете удалять свои сообщения
Вы не можете голосовать в опросах
Вы не можете прикреплять файлы к сообщениям
Вы можете скачивать файлы