Loading...
Error

Скачать Банковский билет в миллион фунтов стерлингов / The Million Pound Note (Рональд Ним / Ronald Neame) [1954 г., Комедия, DVDRip] [MVO] (Культура) + [Dub] (Сов) торрент без регистрации

 
Статистика раздачи
Размер:  1,41 GB   |    Скачан:  127 раз

Полного источника не было: 30 минут

 
Автор Сообщение

leon030982

[] 

Банковский билет в миллион фунтов стерлингов / The Million Pound Note



Год выпуска: 1954
Страна: Великобритания
Жанр: Комедия
Продолжительность: 01:24:33
Перевод #1: Профессиональный (многоголосый, закадровый) [Культура]
Перевод #2: Профессиональный (полное дублирование) [Советский дубляж]
Русские субтитры: нет

Режиссер: Рональд Ним / Ronald Neame

В ролях: Грегори Пек / Gregory Peck ... Henry Adams, Джейн Гриффитс / Joyce Grenfell ... Duchess of Cromarty, Рональд Сквайр / Ronald Squire ... Oliver Montpelier, A.E. Matthews ... Duke of Frognell, Maurice Denham ... Mr. Reid

Описание: Два эксцентричных брата-миллионера заключают между собой пари. Они оформляют банковский билет на миллион фунтов стерлингов и вручают его американцу Генри Адамсу, оказавшемуся в Англии без гроша в кармане.
По условиям пари, Генри должен прожить целый месяц в кредит по билету, не разменивая его, и в случае успеха получить солидное вознаграждение.

Фильм снят по мотивам рассказа Марка Твена.



Качество: DVDRip
Формат: AVI
Видео кодек: XviD
Аудио кодек: MP3
Видео: 704x528 (4:3), 25 fps, XviD build 47 ~2111 kbps avg, 0.23 bit/pixel
Аудио #1: 48 kHz, MPEG Layer 3, 2 ch, 128.00 kbps avg [студия "Пифагор" ГТРК "Культура"]
Аудио #2: 48 kHz, MPEG Layer 3, 2 ch, 128.00 kbps avg [Советский дубляж]
General
Complete name : E:\INTERNET\Million_Pound_Note_1954_StRAK.avi
Format : AVI
Format/Info : Audio Video Interleave
File size : 1.41 GiB
Duration : 1h 24mn
Overall bit rate : 2 383 Kbps
Movie name : The Million Pound Note 1954
Director : directed by Ronald Neame
Writing application : VirtualDubMod 1.5.10.2 (build 2542/release)
Writing library : VirtualDubMod build 2542/release
Copyright : Synchronizing and remastering sound by Studio RAK

Video
ID : 0
Format : MPEG-4 Visual
Format profile : Advanced Simple@L5
Format settings, BVOP : 1
Format settings, QPel : No
Format settings, GMC : No warppoints
Format settings, Matrix : Custom
Codec ID : XVID
Codec ID/Hint : XviD
Duration : 1h 24mn
Bit rate : 2 112 Kbps
Width : 704 pixels
Height : 528 pixels
Display aspect ratio : 4:3
Frame rate : 25.000 fps
Color space : YUV
Chroma subsampling : 4:2:0
Bit depth : 8 bits
Scan type : Progressive
Compression mode : Lossy
Bits/(Pixel*Frame) : 0.227
Stream size : 1.25 GiB (89%)
Writing library : XviD 1.2.0.dev47 (UTC 2006-11-01)

Audio #1
ID : 1
Format : MPEG Audio
Format version : Version 1
Format profile : Layer 3
Codec ID : 55
Codec ID/Hint : MP3
Duration : 1h 24mn
Bit rate mode : Constant
Bit rate : 128 Kbps
Channel(s) : 2 channels
Sampling rate : 48.0 KHz
Compression mode : Lossy
Stream size : 77.4 MiB (5%)
Alignment : Aligned on interleaves
Interleave, duration : 40 ms (1.00 video frame)
Interleave, preload duration : 504 ms
Writing library : LAME3.98r
Encoding settings : -m s -V 4 -q 9 -lowpass 17 -b 128

Audio #2
ID : 2
Format : MPEG Audio
Format version : Version 1
Format profile : Layer 3
Codec ID : 55
Codec ID/Hint : MP3
Duration : 1h 24mn
Bit rate mode : Constant
Bit rate : 128 Kbps
Channel(s) : 2 channels
Sampling rate : 48.0 KHz
Compression mode : Lossy
Stream size : 77.4 MiB (5%)
Alignment : Aligned on interleaves
Interleave, duration : 40 ms (1.00 video frame)
Interleave, preload duration : 504 ms
Writing library : LAME3.98r
Encoding settings : -m s -V 4 -q 9 -lowpass 17 -b 128



Скачать Банковский.билет.в.миллион.фунтов.стерлингов.The.Million.Pound.Note.(Рональд.Ним.Ronald.Neame).[1954.г.Комедия.DVDRip].[MVO].(Культура).+.[Dub].(Сов).torrent без регистрации
Золото ЗОЛОТАЯ РАЗДАЧА! СКАЧАННОЕ НЕ ЗАСЧИТЫВАЕТСЯ! Золото
Дата: Зарегистрирован   [ Тип: внутренний ] Как тут cкачать?
MAGNET ссылка
MAGNET ссылка


Скачать .torrent

15 KB

Статус: проверено DHT
Скачан: торрент - 127 раз, раздача полностью - 31 раз
Размер: 1,41 GB
Оценка:  - (Голосов: 0)
Поблагодарили: 0
Поделиться ссылкой на эту раздачу с друзьями:
В контактеFacebookОдноклассникиTwitterLivejournalМой МирLiveinternet
 

 
Показать сообщения:    


Вы не можете начинать темы
Вы не можете отвечать на сообщения
Вы не можете редактировать свои сообщения
Вы не можете удалять свои сообщения
Вы не можете голосовать в опросах
Вы не можете прикреплять файлы к сообщениям
Вы можете скачивать файлы