Loading...
Error

Скачать Билли Батгейт / Billy Bathgate (Роберт Бентон / Robert Benton) [1991, Драма, Криминал, BDRip] [DVO] (НТВ+) + [AVO] (Михалев) торрент без регистрации

 
Статистика раздачи
Размер:  1,46 GB   |    Скачан:  105 раз

Полного источника не было: 26 минут

 
Автор Сообщение

leon030982

[] 

Билли Батгейт / Billy Bathgate


Год выпуска: 1991
Страна: США
Жанр: Драма, Криминал
Продолжительность: 01:46:33
Перевод №1:Профессиональный (двухголосый, закадровый) [НТВ+]

Отдельно на Яндекс Диск:
Перевод №2: Авторский (одноголосный) [Михалев]
<<Скачать>>

Субтитры: нет
Режиссер: Роберт Бентон / Robert Benton
В ролях: Дастин Хоффман, Николь Кидман, Лорен Дин, Брюс Уиллис, Стивен Хилл, Стив Бушеми, Билли Джэй, Джон Костелло, Тимоти Джером, Стэнли Туччи и др.
Описание: В 1935 году Билли Батгэйт — всего лишь обычный уличный мальчишка, один из многих. Проходит несколько лет, и он становится широко известен… в криминальных кругах… И это не удивительно, ведь Билли входит в банду знаменитого босса мафии Голландца Шульца. Новая звезда преступного мира успешно продвигается в своей преступной карьере… пока не встречает девушку своей мечты. Она красива и соблазнительна. Но у нее есть один существенный недостаток: она — женщина Голландца.…

Качество: BDRip / Исх. BDRemux 1080p
Формат: AVI
Видео кодек: XviD
Аудио кодек: AC3
Видео: 704x400 (1.76:1), 23.976 fps, XviD build 73 ~1499 kbps avg, 0.22 bit/pixel
Аудио: 48 kHz, AC3 Dolby Digital, 3/2 (L,C,R,l,r) + LFE ch, ~448 kbps


Отдельно на Яндекс Диск:
Аудио: AC3, 192 kBit/s, 48 kHz, 2 ch [Авторский (одноголосный)] [Михалев]
<<Скачать>>
General
Complete name : D:\Billi_Batgeyt_1991_BDRip_Menen.avi
Format : AVI
Format/Info : Audio Video Interleave
File size : 1.46 GiB
Duration : 1h 46mn
Overall bit rate : 1 956 Kbps
Movie name : Billi_Batgeyt_1991_BDRip_Menen
Director : Menen
Writing application : VirtualDubMod 1.5.10.2 (build 2540/release)
Video
ID : 0
Format : MPEG-4 Visual
Format profile : Advanced Simple@L5
Format settings, BVOP : 1
Format settings, QPel : No
Format settings, GMC : No warppoints
Format settings, Matrix : Custom
Codec ID : XVID
Codec ID/Hint : XviD
Duration : 1h 46mn
Bit rate : 1 499 Kbps
Width : 704 pixels
Height : 400 pixels
Display aspect ratio : 16:9
Frame rate : 23.976 fps
Color space : YUV
Chroma subsampling : 4:2:0
Bit depth : 8 bits
Scan type : Progressive
Compression mode : Lossy
Bits/(Pixel*Frame) : 0.222
Stream size : 1.12 GiB (77%)
Writing library : XviD 73
Audio
ID : 1
Format : AC-3
Format/Info : Audio Coding 3
Mode extension : CM (complete main)
Format settings, Endianness : Big
Codec ID : 2000
Duration : 1h 46mn
Bit rate mode : Constant
Bit rate : 448 Kbps
Channel(s) : 6 channels
Channel positions : Front: L C R, Side: L R, LFE
Sampling rate : 48.0 KHz
Bit depth : 16 bits
Compression mode : Lossy
Stream size : 341 MiB (23%)
Alignment : Split accross interleaves
Interleave, duration : 42 ms (1.00 video frame)
Interleave, preload duration : 500 ms





Скачать Билли.Батгейт.Billy.Bathgate.(Роберт.Бентон.Robert.Benton).[1991.Драма.Криминал.BDRip].[DVO].(НТВ+).+.[AVO].(Михалев).torrent без регистрации
Золото ЗОЛОТАЯ РАЗДАЧА! СКАЧАННОЕ НЕ ЗАСЧИТЫВАЕТСЯ! Золото
Дата: Зарегистрирован   [ Тип: внутренний ] Как тут cкачать?
MAGNET ссылка
MAGNET ссылка


Скачать .torrent

15 KB

Статус: проверено DHT
Скачан: торрент - 105 раз, раздача полностью - 9 раз
Размер: 1,46 GB
Оценка:  4 (Голосов: 1)
Поблагодарили: 2
Поделиться ссылкой на эту раздачу с друзьями:
В контактеFacebookОдноклассникиTwitterLivejournalМой МирLiveinternet
 

 
Показать сообщения:    


Вы не можете начинать темы
Вы не можете отвечать на сообщения
Вы не можете редактировать свои сообщения
Вы не можете удалять свои сообщения
Вы не можете голосовать в опросах
Вы не можете прикреплять файлы к сообщениям
Вы можете скачивать файлы