Loading...
Error

Скачать Гайвер / Guyver (Скримин Мэд Джордж / Screaming Mad George , Стив Ванг / Steve Wang) [1991 г., фантастика, боевик, комедия, DVDRip] [Режиссерская версия / Director's Cut] 3x[AVO] (А.Гаврилов, В.Горчаков, Неизвестный) торрент без регистрации

 
Статистика раздачи
Размер:  1,9 GB   |    Скачан:  172 раза
Сидов:  1  [  0 KB/s  ]  
 
Автор Сообщение

leon030982

[] 

Гайвер / Guyver [Режиссерская версия / Director's Cut]


Год выпуска: 1991
Производство: США, Япония
Жанр: фантастика, боевик, комедия
Продолжительность: 01:32:47
Перевод #1: Авторский (одноголосый, закадровый) [А.Гаврилов (ранний)]
Перевод #2: Авторский (одноголосый, закадровый) [А.Гаврилов (поздний)]
Перевод #3: Авторский (одноголосый, закадровый) [В.Горчаков]
Перевод #4: Авторский (одноголосый, закадровый) [Неизвестный]
Субтитры: отсутствуют

Режиссер: Скримин Мэд Джордж / Screaming Mad George , Стив Ванг / Steve Wang

В ролях: Джек Армстронг, Марк Хэмилл, Вивиан Ву, Дэвид Гэйл, Джонни Сайко, Грег Пайк, Джимми Уолкер, Питер Спеллос, Майкл Берриман, Спайс Уильямс, Дебора Горман, Джеффри Комбс

Описание: Инопланетяне прибыли на Землю, чтобы создать новое органическое оружие — человеческий разум. Имплантируя в человеческий мозг дополнительный ген, они превращают людей в непобедимых монстров.Только альтернативное оружие — «Гайвер» может противостоять порабощению. «Гайвер» представляет собой некий биокостюм, стократно увеличивающий прыткость и силу носителя. Случайным обладателем «Гайвера» становится обыкновенный студент, изучающий каратэ.

   



Качество: DVDRip
Формат: AVI
Видео кодек: XviD
Аудио кодек: AC3
Видео: 720x384 (1.88:1), 23.976 fps, XviD build 50 ~1943 kbps avg, 0.29 bit/pixel
Аудио #1: AC3 Dolby Digital, 2/0 (L,R) ch, ~192 kbps - А.Гаврилов (ранний)
Аудио #2: 48 kHz, AC3 Dolby Digital, 3/2 (L,C,R,l,r) + LFE ch, ~384 kbps - А.Гаврилов (поздний)
Аудио #3: AC3 Dolby Digital, 2/0 (L,R) ch, ~192 kbps - В.Горчаков
Аудио #4: AC3 Dolby Digital, 2/0 (L,R) ch, ~192 kbps - Неизвестный
DVDrip DeASS, исходник ДВД9. Авторские дороги найдены в сети.
General
Complete name : E:\INTERNET\Guyver [Director's Cut].1991 DVDRip by DeASS.avi
Format : AVI
Format/Info : Audio Video Interleave
File size : 1.90 GiB
Duration : 1h 32mn
Overall bit rate : 2 930 Kbps
Writing application : VirtualDubMod 1.5.10.3 (build 2550/release)
Writing library : VirtualDubMod build 2550/release

Video
ID : 0
Format : MPEG-4 Visual
Format profile : Advanced Simple@L5
Format settings, BVOP : 1
Format settings, QPel : No
Format settings, GMC : No warppoints
Format settings, Matrix : Default (MPEG)
Codec ID : XVID
Codec ID/Hint : XviD
Duration : 1h 32mn
Bit rate : 1 946 Kbps
Width : 720 pixels
Height : 384 pixels
Display aspect ratio : 1.875
Frame rate : 23.976 fps
Color space : YUV
Chroma subsampling : 4:2:0
Bit depth : 8 bits
Scan type : Progressive
Compression mode : Lossy
Bits/(Pixel*Frame) : 0.294
Stream size : 1.26 GiB (66%)
Writing library : XviD 1.2.1 (UTC 2008-12-04)

Audio #1
ID : 1
Format : AC-3
Format/Info : Audio Coding 3
Mode extension : CM (complete main)
Codec ID : 2000
Duration : 1h 32mn
Bit rate mode : Constant
Bit rate : 192 Kbps
Channel(s) : 2 channels
Channel positions : Front: L R
Sampling rate : 48.0 KHz
Bit depth : 16 bits
Compression mode : Lossy
Stream size : 127 MiB (7%)
Alignment : Split accross interleaves
Interleave, duration : 42 ms (1.00 video frame)
Interleave, preload duration : 500 ms

Audio #2
ID : 2
Format : AC-3
Format/Info : Audio Coding 3
Mode extension : CM (complete main)
Codec ID : 2000
Duration : 1h 32mn
Bit rate mode : Constant
Bit rate : 384 Kbps
Channel(s) : 6 channels
Channel positions : Front: L C R, Side: L R, LFE
Sampling rate : 48.0 KHz
Bit depth : 16 bits
Compression mode : Lossy
Stream size : 255 MiB (13%)
Alignment : Split accross interleaves
Interleave, duration : 42 ms (1.00 video frame)
Interleave, preload duration : 500 ms

Audio #3
ID : 3
Format : AC-3
Format/Info : Audio Coding 3
Mode extension : CM (complete main)
Codec ID : 2000
Duration : 1h 32mn
Bit rate mode : Constant
Bit rate : 192 Kbps
Channel(s) : 2 channels
Channel positions : Front: L R
Sampling rate : 48.0 KHz
Bit depth : 16 bits
Compression mode : Lossy
Stream size : 127 MiB (7%)
Alignment : Split accross interleaves
Interleave, duration : 42 ms (1.00 video frame)
Interleave, preload duration : 500 ms

Audio #4
ID : 4
Format : AC-3
Format/Info : Audio Coding 3
Mode extension : CM (complete main)
Codec ID : 2000
Duration : 1h 32mn
Bit rate mode : Constant
Bit rate : 192 Kbps
Channel(s) : 2 channels
Channel positions : Front: L R
Sampling rate : 48.0 KHz
Bit depth : 16 bits
Compression mode : Lossy
Stream size : 127 MiB (7%)
Alignment : Split accross interleaves
Interleave, duration : 42 ms (1.00 video frame)
Interleave, preload duration : 500 ms



Скачать Гайвер.Guyver.(Скримин.Мэд.Джордж.Screaming.Mad.George.Стив.Ванг.Steve.Wang).[1991.г.фантастика.боевик.комедия.DVDRip].[Режиссерская.версия.Director's.Cut].3x[AVO].(А.Гаврилов.В.Горчаков.Неизвестный).torrent без регистрации
Золото ЗОЛОТАЯ РАЗДАЧА! СКАЧАННОЕ НЕ ЗАСЧИТЫВАЕТСЯ! Золото
Дата: Зарегистрирован   [ Тип: внутренний ] Как тут cкачать?
MAGNET ссылка
MAGNET ссылка


Скачать .torrent

19 KB

Статус: проверено DHT
Скачан: торрент - 172 раз, раздача полностью - 5 раз
Размер: 1,9 GB
Оценка:  5 (Голосов: 3)
Поблагодарили: 7
Поделиться ссылкой на эту раздачу с друзьями:
В контактеFacebookОдноклассникиTwitterLivejournalМой МирLiveinternet
 

 
Показать сообщения:    


Вы не можете начинать темы
Вы не можете отвечать на сообщения
Вы не можете редактировать свои сообщения
Вы не можете удалять свои сообщения
Вы не можете голосовать в опросах
Вы не можете прикреплять файлы к сообщениям
Вы можете скачивать файлы