Loading...
Error

Скачать Удар по системе / Shock to the System (Рон Оливер) [2006, триллер, драма, криминал, детектив, HDTVRip-AVC] [DVO] торрент без регистрации

 
Статистика раздачи
Размер:  1,66 GB   |    Скачан:  111 раз

Полного источника не было: 25 минут

 
Автор Сообщение

Marsianka

[] 

Информация о фильме
Название: Удар по системе
Оригинальное название: Shock to the System
Год выпуска: 2006
Жанр: триллер, драма, криминал, детектив
Режиссер: Рон Оливер
В ролях: Чед Аллен, Себастьян Спенс, Майкл Вудс, Дэрил Шаттлворф, Морган Фэйрчайлд, Энн Мари Лодер, Рикки Гейгн, Стивен Хузар, Нельсон Вонг, Райан Кеннеди

О фильме:
Детектив, расследующий загадочную смерть своего приятеля, связанного с социальным фондом «Феникс», не верит в его самоубийство. Чтобы разобраться в этом деле, он внедряется в фонд под видом пациента, нуждающегося в сеансах групповой терапии.



Страна: Канада
Студия: Insight Film and Video Production Inc., Shavick Entertainment Inc.
Продолжительность: 01:27:37
Перевод: Профессиональный двухголосый

Файл
Кодек: x264
Качество: HDTVRip-AVC
Видео: MPEG-4 AVC, 2511 Кбит/с, 1024x576, 25.000 кадр/с
Звук:
Аудио: Русский (AС3, 2 ch, 192 Кбит/с) / Профессиональный двухголосый (НТВ+)

Семпл
x264 [info]: frame I:1150 Avg QP:14.49 size:102251
x264 [info]: frame P:31078 Avg QP:17.12 size: 32994
x264 [info]: frame B:99189 Avg QP:19.10 size: 5114

=============================================

Уникальный идентификатор : 250720716512936240021051858435902606991 (0xBC9F0DB62D48998EA50AAEC61BC90E8F)
Полное имя : E:MCUdar.po.Systeme.2006.x264.HDTVRip(AVC)-MediaClubUdar.po.Systeme.2006.x264.HDTVRip(AVC)-MediaClub.mkv
Формат : Matroska
Версия формата : Version 4 / Version 2
Размер файла : 1,66 Гбайт
Продолжительность : 1 ч. 27 м.
Общий поток : 2705 Кбит/сек
Название фильма : -= Release MediaClub =-
Дата кодирования : UTC 2013-12-27 15:05:35
Программа кодирования : mkvmerge v6.4.1 ('Omega Point') built on Sep 16 2013 22:05:10
Библиотека кодирования : libebml v1.3.0 + libmatroska v1.4.1
Attachment : Yes

Видео
Идентификатор : 1
Формат : AVC
Формат/Информация : Advanced Video Codec
Профиль формата : High@L4.1
Параметр CABAC формата : Да
Параметр ReFrames формата : 8 кадров
Идентификатор кодека : V_MPEG4/ISO/AVC
Продолжительность : 1 ч. 27 м.
Битрейт : 2511 Кбит/сек
Ширина : 1024 пикселя
Высота : 576 пикселей
Соотношение сторон : 16:9
Режим частоты кадров : Постоянный
Частота кадров : 25,000 кадров/сек
Цветовое пространство : YUV
Субдискретизация насыщенности : 4:2:0
Битовая глубина : 8 бит
Тип развёртки : Прогрессивная
Бит/(Пиксели*Кадры) : 0.170
Размер потока : 1,51 Гбайт (91%)
Заголовок : Udar.po.Systeme.2006.x264.HDTVRip(AVC)-neni
Библиотека кодирования : x264 core 130 r2273 b3065e6
Настройки программы : cabac=1 / ref=8 / deblock=1:-2:-2 / analyse=0x3:0x113 / me=umh / subme=11 / psy=1 / psy_rd=1.00:0.20 / mixed_ref=1 / me_range=48 / chroma_me=1 / trellis=2 / 8x8dct=1 / cqm=0 / deadzone=21,11 / fast_pskip=0 / chroma_qp_offset=-3 / threads=9 / lookahead_threads=1 / sliced_threads=0 / nr=0 / decimate=0 / interlaced=0 / bluray_compat=0 / constrained_intra=0 / bframes=8 / b_pyramid=2 / b_adapt=2 / b_bias=0 / direct=3 / weightb=1 / open_gop=0 / weightp=2 / keyint=240 / keyint_min=24 / scenecut=40 / intra_refresh=0 / rc=2pass / mbtree=0 / bitrate=2511 / ratetol=1.0 / qcomp=0.60 / qpmin=0 / qpmax=69 / qpstep=4 / cplxblur=20.0 / qblur=0.5 / ip_ratio=1.40 / pb_ratio=1.30 / aq=1:1.00
Язык : English
Default : Да
Forced : Да

Аудио
Идентификатор : 2
Формат : AC-3
Формат/Информация : Audio Coding 3
Расширение режима : CM (complete main)
Параметр Endianness формата : Big
Идентификатор кодека : A_AC3
Продолжительность : 1 ч. 27 м.
Вид битрейта : Постоянный
Битрейт : 192 Кбит/сек
Каналы : 2 канала
Расположение каналов : Front: L R
Частота : 48,0 КГц
Битовая глубина : 16 бит
Метод сжатия : С потерями
Размер потока : 120 Мбайт (7%)
Заголовок : Профессиональный двухголосый
Язык : Russian
Default : Да
Forced : Да
Релиз от: Rip by



Скачать Удар.по.системе.Shock.to.the.System.(Рон.Оливер).[2006.триллер.драма.криминал.детектив.HDTVRip-AVC].[DVO].torrent без регистрации
Золото ЗОЛОТАЯ РАЗДАЧА! СКАЧАННОЕ НЕ ЗАСЧИТЫВАЕТСЯ! Золото
Дата: Зарегистрирован   [ Тип: внутренний ] Как тут cкачать?
MAGNET ссылка
MAGNET ссылка


Скачать .torrent

17 KB

Статус: проверено DHT
Скачан: торрент - 111 раз, раздача полностью - 4 раз
Размер: 1,66 GB
Оценка:  - (Голосов: 0)
Поблагодарили: 1
Поделиться ссылкой на эту раздачу с друзьями:
В контактеFacebookОдноклассникиTwitterLivejournalМой МирLiveinternet
 

 
Показать сообщения:    


Вы не можете начинать темы
Вы не можете отвечать на сообщения
Вы не можете редактировать свои сообщения
Вы не можете удалять свои сообщения
Вы не можете голосовать в опросах
Вы не можете прикреплять файлы к сообщениям
Вы можете скачивать файлы