Loading...
Error

Скачать Шерлок / Sherlock (Полный 3-ий сезон) (Пол МакГиган) [2014, Драма, детектив, DVB] [DUB] [Первый канал] торрент без регистрации

 
Статистика раздачи
Размер:  11,17 GB   |    Скачан:  167 раз
Сидов:  1  [  0 KB/s  ]  
 
Автор Сообщение

leon030982

[] 

Шерлок / Sherlock

Год выпуска: 2013
Страна: Великобритания
Жанр: Детектив, Драма, Комедия
Продолжительность: 01:30:00
Перевод: Полное дублирование [Первый канал]
Русские субтитры: нет

Режиссёр: Джереми Лавринг, Колм Маккарти, Ник Харран

В ролях: Бенедикт Камбербэтч, Мартин Фриман, Уна Стаббс, Лу Брили, Руперт Грейвз, Марк Гатисс, Зои Телфорд, Винетт Робинсон, Таня Муди, Джонатан Арис и другие.

Описание: Сериал представляет собой современную версию книг и рассказов о приключениях Шерлока Холмса. Отсюда изменение образов главных персонажей: Холмс здесь не всегда вежлив, но всё так же гениален; в отличие от оригинального Холмса, он не употребляет наркотики и использует никотиновый пластырь. Ватсон, как и в оригинальных произведениях, служил военным врачом в Афганистане. Миссис Хадсон относится к Холмсу как к сыну, хотя и не одобряет то, что он часто приказывает ей как домработнице. Лестрейд не против сотрудничества с Холмсом, и часто сам зовёт его на помощь. Его характер из книг передан девушке-сержанту Салли Донован. Также, в отличие от книг, здесь Холмс и Ватсон называют друг друга по именам, а не по фамилиям.
Третий сезон: после смерти Шерлока проходит два года, жизнь доктора Джона Ватсона идет своим чередом. А вот над Лондоном нависает угроза разрушительной террористической атаки, и Шерлок готовит сценарий своего невероятного воскрешения. Но, если он думает, что за время его отсутствия ничего не изменилось – он будет очень удивлен…

Сэмпл: http://multi-up.com/

Релиз -

Рип чистый. Без посторонних надписей. Выкладывается как есть.

Качество: DVB
Формат: MPG
Видео кодек: MPEG2
Аудио кодек: MP2
Видео: 720x576 @ 1024x576 (16х9) 25.00fps 5 810 Kbps, 0.560 bit/pixel
Аудио: MPEG Audio 48000Hz stereo 160 Кбит/сек
General
Complete name : C:\2013\Sherlock. S03E01 (2013, DVB) (MYDIMKA).mpg
Format : MPEG-PS
File size : 3.68 GiB
Duration : 1h 26mn
Overall bit rate mode : Variable
Overall bit rate : 6 084 Kbps
Video
ID : 224 (0xE0)
Format : MPEG Video
Format version : Version 2
Format profile : Main@Main
Format settings, BVOP : Yes
Format settings, Matrix : Custom
Format settings, GOP : Variable
Duration : 1h 26mn
Bit rate mode : Variable
Bit rate : 5 803 Kbps
Maximum bit rate : 15.0 Mbps
Width : 720 pixels
Height : 576 pixels
Display aspect ratio : 16:9
Frame rate : 25.000 fps
Standard : PAL
Color space : YUV
Chroma subsampling : 4:2:0
Bit depth : 8 bits
Scan type : Interlaced
Scan order : Top Field First
Compression mode : Lossy
Bits/(Pixel*Frame) : 0.560
Time code of first frame : 00:00:00:00
Time code source : Group of pictures header
Stream size : 3.51 GiB (95%)
Audio
ID : 192 (0xC0)
Format : MPEG Audio
Format version : Version 1
Format profile : Layer 2
Duration : 1h 26mn
Bit rate mode : Constant
Bit rate : 160 Kbps
Channel count : 2 channels
Sampling rate : 48.0 KHz
Compression mode : Lossy
Delay relative to video : 23ms
Stream size : 99.0 MiB (3%)



Скачать Шерлок.Sherlock.(Полный.3-ий.сезон).(Пол.МакГиган).[2014.Драма.детектив.DVB].[DUB].[Первый.канал].torrent без регистрации
Золото ЗОЛОТАЯ РАЗДАЧА! СКАЧАННОЕ НЕ ЗАСЧИТЫВАЕТСЯ! Золото
Дата: Зарегистрирован   [ Тип: внутренний ] Как тут cкачать?
MAGNET ссылка
MAGNET ссылка


Скачать .torrent

57 KB

Статус: проверено DHT
Скачан: торрент - 167 раз, раздача полностью - 18 раз
Размер: 11,17 GB
Оценка:  5 (Голосов: 1)
Поблагодарили: 1
Поделиться ссылкой на эту раздачу с друзьями:
В контактеFacebookОдноклассникиTwitterLivejournalМой МирLiveinternet
 

 

leon030982

[] 

добавлена финальная серия az
 
Показать сообщения:    


Вы не можете начинать темы
Вы не можете отвечать на сообщения
Вы не можете редактировать свои сообщения
Вы не можете удалять свои сообщения
Вы не можете голосовать в опросах
Вы не можете прикреплять файлы к сообщениям
Вы можете скачивать файлы