Loading...
Error

Скачать Дживс и Вустер / Jeeves and Wooster (сезоны 01-04) (Фердинанд Фэйрфакс, Саймон Лэнгтон, Роберт Янг) [1990-1993, комедия, DVDRip] [MVO] торрент без регистрации

 
Статистика раздачи
Размер:  16,38 GB   |    Скачан:  438 раз
Сидов:  1  [  0 KB/s  ]  
 
Автор Сообщение

МихаНЕзатор

[] 

Дживс и Вустер / Jeeves & Wooster


Название: Дживс и Вустер Оригинальное название: Jeeves & Wooster
Год выхода: 1990-1993
Жанр: комедия
Режиссер: Фердинанд Фэйрфакс, Саймон Лэнгтон, Роберт Янг

В ролях: Хью Лори, Стивен Фрай, Роберт Доуз, Ричард Диксон, Мэри Вимбуш, Джон Тернер, Джон Вуднатт, Майкл Риппер, Франческа Фолан, Элизабет Хири

О фильме: Великобритания, конец 1920-х. Главные герои недалекий, хорошо воспитанный отпрыск аристократического семейства Берти Вустер и его хитроумный камердинер Дживс. Беспечный прожигатель жизни, Вустер вечно попадает в нелепые ситуации, но всякий раз на выручку приходит мудрый и всезнающий Дживс. Властные тетушки и жадные девицы на выданье таков основной круг опасностей, подстерегающих молодых господ. Но на то им и слуги, чтобы помогать и советом, и делом. По возможности невозмутимо. Ведь и они настоящие британцы.



Страна: Великобритания, Carnival Films, Granada Television
Продолжительность: 23 х ~ 00:50:00
Перевод: Профессиональный многоголосый

Качество: DVDRip
Видео: MPEG-4 AVC, ~ 1820 Кбит/с, 720x540
Звук: Русский (АС3, 2 ch, 192-224 Кбит/с), английский (АС3, 2 ch, 160 Кбит/с)
Субтитры: Русские, английские

Рип с нового ремастерированного издания, посвященного 20-летнему юбилею выхода сериала.
Сравнения с другими рипами


АНОНСЫ ПОПУЛЯРНЫХ РАЗДАЧ


10.01.2014 г. торент обновлён, добавлена 2-4 сезоны!
Общее
Полное имя : E:Jeeves & WoosterJW_S01E01.mkv
Формат : Matroska
Версия формата : Version 2
Размер файла : 781 Мбайт
Продолжительность : 50 м.
Общий поток : 2151 Кбит/сек
Дата кодирования : UTC 2014-01-06 17:01:48
Программа кодирования : mkvmerge v6.6.0 ('The Edge Of The In Between') built on Dec 1 2013 17:55:00
Библиотека кодирования : libebml v1.3.0 + libmatroska v1.4.1

Видео
Идентификатор : 1
Формат : AVC
Формат/Информация : Advanced Video Codec
Профиль формата : High@L3.0
Параметр CABAC формата : Да
Параметр ReFrames формата : 4 кадра
Идентификатор кодека : V_MPEG4/ISO/AVC
Битрейт : 1764 Кбит/сек
Ширина : 720 пикселей
Высота : 540 пикселей
Соотношение сторон : 4:3
Режим частоты кадров : Переменный
Цветовое пространство : YUV
Субдискретизация насыщенности : 4:2:0
Битовая глубина : 8 бит
Тип развёртки : Прогрессивная
Библиотека кодирования : x264 core 116
Настройки программы : cabac=1 / ref=3 / deblock=1:0:0 / analyse=0x3:0x113 / me=hex / subme=7 / psy=1 / psy_rd=1.00:0.00 / mixed_ref=1 / me_range=16 / chroma_me=1 / trellis=1 / 8x8dct=1 / cqm=0 / deadzone=21,11 / fast_pskip=1 / chroma_qp_offset=-2 / threads=3 / sliced_threads=0 / nr=0 / decimate=1 / interlaced=0 / bluray_compat=0 / constrained_intra=0 / bframes=3 / b_pyramid=2 / b_adapt=2 / b_bias=0 / direct=1 / weightb=1 / open_gop=0 / weightp=2 / keyint=250 / keyint_min=25 / scenecut=40 / intra_refresh=0 / rc_lookahead=50 / rc=2pass / mbtree=1 / bitrate=1764 / ratetol=1.0 / qcomp=0.60 / qpmin=3 / qpmax=69 / qpstep=4 / cplxblur=20.0 / qblur=0.5 / ip_ratio=1.40 / aq=1:1.00
Язык : English
Default : Да
Forced : Нет
Основные цвета : BT.601 NTSC
Характеристики трансфера : BT.709
Коэффициенты матрицы : BT.601

Аудио #1
Идентификатор : 2
Формат : AC-3
Формат/Информация : Audio Coding 3
Расширение режима : CM (complete main)
Параметр Endianness формата : Big
Идентификатор кодека : A_AC3
Продолжительность : 50 м.
Вид битрейта : Постоянный
Битрейт : 224 Кбит/сек
Каналы : 2 канала
Расположение каналов : Front: L R
Частота : 48,0 КГц
Битовая глубина : 16 бит
Метод сжатия : С потерями
Размер потока : 81,4 Мбайт (10%)
Язык : Russian
Default : Да
Forced : Нет

Аудио #2
Идентификатор : 3
Формат : AC-3
Формат/Информация : Audio Coding 3
Расширение режима : CM (complete main)
Параметр Endianness формата : Big
Идентификатор кодека : A_AC3
Продолжительность : 50 м.
Вид битрейта : Постоянный
Битрейт : 160 Кбит/сек
Каналы : 2 канала
Расположение каналов : Front: L R
Частота : 48,0 КГц
Битовая глубина : 16 бит
Метод сжатия : С потерями
Размер потока : 58,1 Мбайт (7%)
Язык : English
Default : Нет
Forced : Нет

Текст #1
Идентификатор : 4
Формат : ASS
Идентификатор кодека : S_TEXT/ASS
Идентификатор кодека/Информация : Advanced Sub Station Alpha
Метод сжатия : Без потерь
Заголовок : Russian by Bodkin [ass]
Язык : Russian
Default : Нет
Forced : Нет

Текст #2
Идентификатор : 5
Формат : ASS
Идентификатор кодека : S_TEXT/ASS
Идентификатор кодека/Информация : Advanced Sub Station Alpha
Метод сжатия : Без потерь
Заголовок : Russian by adomatic [ass]
Язык : Russian
Default : Нет
Forced : Нет

Текст #3
Идентификатор : 6
Формат : ASS
Идентификатор кодека : S_TEXT/ASS
Идентификатор кодека/Информация : Advanced Sub Station Alpha
Метод сжатия : Без потерь
Заголовок : English [ass]
Язык : English
Default : Нет
Forced : Нет

Текст #4
Идентификатор : 7
Формат : UTF-8
Идентификатор кодека : S_TEXT/UTF8
Идентификатор кодека/Информация : UTF-8 Plain Text
Заголовок : Russian by Bodkin [srt]
Язык : Russian
Default : Нет
Forced : Нет

Текст #5
Идентификатор : 8
Формат : UTF-8
Идентификатор кодека : S_TEXT/UTF8
Идентификатор кодека/Информация : UTF-8 Plain Text
Заголовок : Russian by adomatic [srt]
Язык : Russian
Default : Нет
Forced : Нет

Текст #6
Идентификатор : 9
Формат : UTF-8
Идентификатор кодека : S_TEXT/UTF8
Идентификатор кодека/Информация : UTF-8 Plain Text
Заголовок : English [srt]
Язык : English
Default : Нет
Forced : Нет



Скачать Дживс.и.Вустер.Jeeves.and.Wooster.(сезоны.01-04).(Фердинанд.Фэйрфакс.Саймон.Лэнгтон.Роберт.Янг).[1990-1993.комедия.DVDRip].[MVO].torrent без регистрации
Золото ЗОЛОТАЯ РАЗДАЧА! СКАЧАННОЕ НЕ ЗАСЧИТЫВАЕТСЯ! Золото
Дата: Зарегистрирован   [ Тип: внутренний ] Как тут cкачать?
MAGNET ссылка
MAGNET ссылка


Скачать .torrent

43 KB

Статус: проверено DHT
Скачан: торрент - 438 раз, раздача полностью - 717 раз
Размер: 16,38 GB
Оценка:  5 (Голосов: 1)
Поблагодарили: 2
Поделиться ссылкой на эту раздачу с друзьями:
В контактеFacebookОдноклассникиTwitterLivejournalМой МирLiveinternet
 

 

МихаНЕзатор

[] 

Раздача обновлена
 
Показать сообщения:    


Вы не можете начинать темы
Вы не можете отвечать на сообщения
Вы не можете редактировать свои сообщения
Вы не можете удалять свои сообщения
Вы не можете голосовать в опросах
Вы не можете прикреплять файлы к сообщениям
Вы можете скачивать файлы