Loading...
Error

Скачать Вне подозрений / Above Suspicion (Сезон 03, серии 1-3 из 3) (Жиль Маккинон / Gillies Mackinnon) [2010, детектив, HDTVRip] [DVO] (студия "Райдо") торрент без регистрации

 
Статистика раздачи
Размер:  1,08 GB   |    Скачан:  129 раз
Сидов:  1  [  0 KB/s  ]  
 
Автор Сообщение

leon030982

[] 

Вне подозрений / Above Suspicion (Сезон 03, серии 1-3 из 3)



Год выпуска: 2010
Страна: Великобритания
Жанр: детектив
Продолжительность: 3 х - 00:45:41
Перевод: Любительский (двухголосый, закадровый) [студия "Райдо"]
Озвучено по субтитрам Нотабеноид.
Русские субтитры: нет
Субтитры: отсутствуют

Режиссёр: Жиль Маккинон / Gillies Mackinnon

В ролях: Кейли Рейли, Кирен Хайндз, Шон Дингуолл, Селин Джонз, Аманда Лоуренс, Рэй Фирон и др.

Описание: Британский сериал по бестселлеру Линды Лаплант, криминальная драма о молодом и амбициозном офицере полиции Анне Трэвис, которая быстро продвигается по служебной лестнице и работает буквально на грани, чтобы добиться того же успеха как и ее отец. Ее первым делом становится поиски жестокого серийного убийцы...



Качество: HDTVRip
Формат: AVI
Видео кодек: XviD
Аудио кодек: MP3
Видео: 624x352 (1.77:1), 25 fps, XviD build 50 ~920 kbps avg, 0.17 bit/pixel
Аудио: 48 kHz, MPEG Layer 3, 2 ch, ~192.00 kbps avg
General
Complete name : E:\INTERNET\Vne podozreniy s03\Vne podozreniy s03e01.avi
Format : AVI
Format/Info : Audio Video Interleave
File size : 368 MiB
Duration : 45mn 51s
Overall bit rate : 1 123 Kbps
Writing application : VirtualDubMod 1.5.10.3 | www.virtualdub-fr.org || (build 2550/release)
Writing library : VirtualDubMod build 2550/release

Video
ID : 0
Format : MPEG-4 Visual
Format profile : Advanced Simple@L5
Format settings, BVOP : 2
Format settings, QPel : No
Format settings, GMC : No warppoints
Format settings, Matrix : Default (H.263)
Codec ID : XVID
Codec ID/Hint : XviD
Duration : 45mn 51s
Bit rate : 921 Kbps
Width : 624 pixels
Height : 352 pixels
Display aspect ratio : 16:9
Frame rate : 25.000 fps
Color space : YUV
Chroma subsampling : 4:2:0
Bit depth : 8 bits
Scan type : Progressive
Compression mode : Lossy
Bits/(Pixel*Frame) : 0.168
Stream size : 302 MiB (82%)
Writing library : XviD 1.2.1 (UTC 2008-12-04)

Audio
ID : 1
Format : MPEG Audio
Format version : Version 1
Format profile : Layer 3
Codec ID : 55
Codec ID/Hint : MP3
Duration : 45mn 51s
Bit rate mode : Constant
Bit rate : 192 Kbps
Channel(s) : 2 channels
Sampling rate : 48.0 KHz
Compression mode : Lossy
Stream size : 63.0 MiB (17%)
Alignment : Aligned on interleaves
Interleave, duration : 40 ms (1.00 video frame)
Interleave, preload duration : 504 ms
Writing library : LAME3.99r
Encoding settings : -m s -V 4 -q 2 -lowpass 18.6 -b 192



Скачать Вне.подозрений.Above.Suspicion.(Сезон.03.серии.1-3.из.3).(Жиль.Маккинон.Gillies.Mackinnon).[2010.детектив.HDTVRip].[DVO].(студия."Райдо").torrent без регистрации
Золото ЗОЛОТАЯ РАЗДАЧА! СКАЧАННОЕ НЕ ЗАСЧИТЫВАЕТСЯ! Золото
Дата: Зарегистрирован   [ Тип: внутренний ] Как тут cкачать?
MAGNET ссылка
MAGNET ссылка


Скачать .torrent

11 KB

Статус: проверено DHT
Скачан: торрент - 129 раз, раздача полностью - 47 раз
Размер: 1,08 GB
Оценка:  - (Голосов: 0)
Поблагодарили: 0
Поделиться ссылкой на эту раздачу с друзьями:
В контактеFacebookОдноклассникиTwitterLivejournalМой МирLiveinternet
 

 
Показать сообщения:    


Вы не можете начинать темы
Вы не можете отвечать на сообщения
Вы не можете редактировать свои сообщения
Вы не можете удалять свои сообщения
Вы не можете голосовать в опросах
Вы не можете прикреплять файлы к сообщениям
Вы можете скачивать файлы