Loading...
Error

Скачать Шерлок / Sherlock (сезон 3) (Джереми Лавринг, Колм Маккарти, Ник Харран) [2014, детектив, драма, HDTVRip] [720p] [Rus Subs (MemoryOnSmells)]+[Origina] торрент без регистрации

 
Статистика раздачи
Размер:  4,95 GB   |    Скачан:  163 раза
Сидов:  1  [  0 KB/s  ]  
 
Автор Сообщение

МихаНЕзатор

[] 



Шерлок / Sherlock.
3 Сезон. Серии 1-3 из 3


Год выпуска: 2014
Страна: Великобритания
Жанр: драма, детектив
Продолжительность: ~01:30:00
Перевод: Субтитры (MemoryOnSmells)
Субтитры: русские
Режиссёр: Джереми Лавринг, Колм Маккарти, Ник Харран

В ролях: Бенедикт Камбербэтч, Мартин Фриман, Уна Стаббс, Лу Брили, Руперт Грейвз, Марк Гатисс, Зои Телфорд, Винетт Робинсон, Таня Муди, Джонатан Арис и другие.

Описание: Сериал представляет собой современную версию книг и рассказов о приключениях Шерлока Холмса. Отсюда изменение образов главных персонажей: Холмс здесь не всегда вежлив, но всё так же гениален; в отличие от оригинального Холмса, он не употребляет наркотики и использует никотиновый пластырь. Ватсон, как и в оригинальных произведениях, служил военным врачом в Афганистане. Миссис Хадсон относится к Холмсу как к сыну, хотя и не одобряет то, что он часто приказывает ей как домработнице. Лестрейд не против сотрудничества с Холмсом, и часто сам зовёт его на помощь. Его характер из книг передан девушке-сержанту Салли Донован. Также, в отличие от книг, здесь Холмс и Ватсон называют друг друга по именам, а не по фамилиям.



Качество: HDTVRip 720p
Формат: MKV
Видео кодек: H.264
Аудио кодек: AC3
Видео: 1280x720 (16:9), 25.000 fps ~2400 Kbps, 0.104 bit/pixel
Аудио: AC3, 48 kHz, 2 channels, 192 kbps

АНОНСЫ ПОПУЛЯРНЫХ РАЗДАЧ


13.01.2014 г. торент обновлён, добавлена 3-я серия!
Format : Matroska
Format version : Version 2
File size : 1.59 GiB
Duration : 1h 26mn
Overall bit rate : 2 638 Kbps
Writing application : Larry Sanders
Writing library : Larry Sanders
Video
ID : 1
Format : AVC
Format/Info : Advanced Video Codec
Format profile : High@L4.1
Format settings, CABAC : Yes
Format settings, ReFrames : 5 frames
Codec ID : V_MPEG4/ISO/AVC
Duration : 1h 26mn
Bit rate : 2 394 Kbps
Width : 1 280 pixels
Height : 720 pixels
Display aspect ratio : 16:9
Frame rate mode : Constant
Frame rate : 25.000 fps
Color space : YUV
Chroma subsampling : 4:2:0
Bit depth : 8 bits
Scan type : Progressive
Bits/(Pixel*Frame) : 0.104
Stream size : 1.44 GiB (91%)
Writing library : x264 core 140 r2377 1ca7bb9
Encoding settings : cabac=1 / ref=5 / deblock=1:0:0 / analyse=0x3:0x113 / me=umh / subme=8 / psy=1 / psy_rd=1.00:0.00 / mixed_ref=1 / me_range=16 / chroma_me=1 / trellis=1 / 8x8dct=1 / cqm=0 / deadzone=21,11 / fast_pskip=1 / chroma_qp_offset=-2 / threads=12 / lookahead_threads=2 / sliced_threads=0 / nr=0 / decimate=1 / interlaced=0 / bluray_compat=0 / constrained_intra=0 / bframes=3 / b_pyramid=2 / b_adapt=2 / b_bias=0 / direct=3 / weightb=1 / open_gop=0 / weightp=2 / keyint=250 / keyint_min=25 / scenecut=40 / intra_refresh=0 / rc_lookahead=50 / rc=crf / mbtree=1 / crf=18.0 / qcomp=0.60 / qpmin=0 / qpmax=69 / qpstep=4 / ip_ratio=1.40 / aq=1:1.00
Language : English
Default : Yes
Forced : No
Audio
ID : 2
Format : AC-3
Format/Info : Audio Coding 3
Mode extension : CM (complete main)
Format settings, Endianness : Big
Codec ID : A_AC3
Duration : 1h 26mn
Bit rate mode : Constant
Bit rate : 192 Kbps
Channel(s) : 2 channels
Channel positions : Front: L R
Sampling rate : 48.0 KHz
Bit depth : 16 bits
Compression mode : Lossy
Stream size : 118 MiB (7%)
Default : Yes
Forced : No
1. The Empty Hearse / Пустой катафалк
2. The Sign of Three / Знак Трех
3. His Last Vow / Его последний обет
1
00:00:04,384 --> 00:00:07,900
"ШЕРЛОК ХОЛМС"
Шерлок!
2
00:00:14,388 --> 00:00:20,788
- Это трюк, обыкновенный фокус.
- Нет. Пора на этом закончить.
3
00:00:22,068 --> 00:00:25,028
Нет. Оставайся на месте.
Не двигайся.
4
00:00:25,508 --> 00:00:26,828
Хорошо.
5
00:00:28,748 --> 00:00:32,387
Не отводи от меня взгляд.
6
00:00:32,388 --> 00:00:36,147
- Сделай для меня кое-что.
- Что?
7
00:00:36,148 --> 00:00:39,828
Считай этот звонок моей запиской.
8
00:00:44,188 --> 00:00:49,728
Люди ведь так поступают:
оставляют записку.
9
00:00:51,428 --> 00:00:53,228
- Когда оставляют записку?!
- Прощай, Джон.
10
00:00:53,868 --> 00:00:57,468
Нет! Нет!
11
00:01:11,988 --> 00:01:13,148
Шерлок!
12
00:01:44,708 --> 00:01:46,010
Ах!
13
00:02:19,308 --> 00:02:22,468
Джон, смотри на меня!
А теперь спи.
Внимание! Раздача ведётся путём добавления новых выпусков; при каждом добавлении создаётся новый торрент. Чтобы начать докачку нового выпуска, пользователям необходимо сделать следующее:
(1) остановить скачивание,
(2) удалить старый торрент у себя из клиента (старые серии удалять не надо),
(3) скачать новый торрент и запустить его у себя в клиенте вместо старого, при этом указать клиенту путь в старую папку куда и должно происходить скачивание новых выпусков.
Ваш клиент при этом должен произвести хеширование (проверку) старой папки (если не производит сам - помогите ему сделать это). В результате он будет докачивать только те выпуски, которых у Вас ещё нет. Старые выпуски при этом не удаляются, а продолжают раздаваться!
Eсли Вы уже удалили старые выпуски, то предотвратить их повторную закачку можно, сняв галочки в соответствующих местах при запуске нового торрента. По возможности, желательно не удалять старые выпуски как можно дольше, чтобы релизёр не только продолжал раздавать старые выпуски, но и смог сконцентрироваться на новых.



Скачать Шерлок.Sherlock.(сезон.3).(Джереми.Лавринг.Колм.Маккарти.Ник.Харран).[2014.детектив.драма.HDTVRip].[720p].[Rus.Subs.(MemoryOnSmells)]+[Origina].torrent без регистрации
Золото ЗОЛОТАЯ РАЗДАЧА! СКАЧАННОЕ НЕ ЗАСЧИТЫВАЕТСЯ! Золото
Дата: Зарегистрирован   [ Тип: внутренний ] Как тут cкачать?
MAGNET ссылка
MAGNET ссылка


Скачать .torrent

26 KB

Статус: проверено DHT
Скачан: торрент - 163 раз, раздача полностью - 18 раз
Размер: 4,95 GB
Оценка:  - (Голосов: 0)
Поблагодарили: 4
Поделиться ссылкой на эту раздачу с друзьями:
В контактеFacebookОдноклассникиTwitterLivejournalМой МирLiveinternet
 

 

МихаНЕзатор

[] 

Раздача обновлена.
 
Показать сообщения:    


Вы не можете начинать темы
Вы не можете отвечать на сообщения
Вы не можете редактировать свои сообщения
Вы не можете удалять свои сообщения
Вы не можете голосовать в опросах
Вы не можете прикреплять файлы к сообщениям
Вы можете скачивать файлы