Loading...
Error

Скачать Шерлок / Sherlock (3х1-2 из 3) (Джереми Лавринг, Колм Маккарти, Ник Харран) [2014, детектив, драма, HDTVRip] [Rus Subs (MemoryOnSmells)]+[Origina] торрент без регистрации

 
Статистика раздачи
Размер:  1,15 GB   |    Скачан:  100 раз
Сидов:  1  [  0 KB/s  ]  
 
Автор Сообщение

МихаНЕзатор

[] 



Шерлок / Sherlock


Год выпуска: 2014
Страна: Великобритания
Жанр: Детектив
Продолжительность: ~90 минут
Перевод: Субтитры [N-Team]
Режиссёр: Джереми Лавринг, Колм Маккарти, Ник Харран

В ролях: Бенедикт Камбербэтч, Мартин Фримэн, Руперт Грейвс, Эндрю Скотт, Марк Гэтисс, Уна Стаббс

Описание: 2 года прошло с момента "смерти" детектива в шляпе. Смог ли выжить любимый герой, смотрите в новом сезоне.



Качество: HDTVRip-AVC
Формат: MP4
Аудио кодек: AAC
Видео: 720x404 (16:9), 25.000 fps, 784 Kbps, 0.108 bit/pixel
Аудио: 48.0 KHz, 2 ch, 123 Kbps

АНОНСЫ ПОПУЛЯРНЫХ РАЗДАЧ

1. The Empty Hearse / Пустой катафалк
2. The Sign of Three / Знак трёх
General
Complete name : D:\Видео\Sherlock Season 3 [N-Team]\Sherlock.3x01.The.Empty.Hearse.HDTV.x264-FoV.mp4
Format : MPEG-4
Format profile : Base Media
Codec ID : isom
File size : 565 MiB
Duration : 1h 26mn
Overall bit rate mode : Variable
Overall bit rate : 916 Kbps
Writing application : Larry Sanders
Video
ID : 1
Format : AVC
Format/Info : Advanced Video Codec
Format profile : High@L3.1
Format settings, CABAC : Yes
Format settings, ReFrames : 5 frames
Codec ID : avc1
Codec ID/Info : Advanced Video Coding
Duration : 1h 26mn
Bit rate : 784 Kbps
Width : 720 pixels
Height : 404 pixels
Display aspect ratio : 16:9
Frame rate mode : Constant
Frame rate : 25.000 fps
Color space : YUV
Chroma subsampling : 4:2:0
Bit depth : 8 bits
Scan type : Progressive
Bits/(Pixel*Frame) : 0.108
Stream size : 483 MiB (86%)
Writing library : x264 core 140 r2377 1ca7bb9
Encoding settings : cabac=1 / ref=5 / deblock=1:0:0 / analyse=0x3:0x113 / me=umh / subme=8 / psy=1 / psy_rd=1.00:0.00 / mixed_ref=1 / me_range=16 / chroma_me=1 / trellis=1 / 8x8dct=1 / cqm=0 / deadzone=21,11 / fast_pskip=1 / chroma_qp_offset=-2 / threads=12 / lookahead_threads=2 / sliced_threads=0 / nr=0 / decimate=1 / interlaced=0 / bluray_compat=0 / constrained_intra=0 / bframes=3 / b_pyramid=2 / b_adapt=2 / b_bias=0 / direct=3 / weightb=1 / open_gop=0 / weightp=2 / keyint=250 / keyint_min=25 / scenecut=40 / intra_refresh=0 / rc_lookahead=50 / rc=crf / mbtree=1 / crf=19.0 / qcomp=0.60 / qpmin=0 / qpmax=69 / qpstep=4 / ip_ratio=1.40 / aq=1:1.00
Language : English
Matrix coefficients : BT.709
Audio
ID : 2
Format : AAC
Format/Info : Advanced Audio Codec
Format profile : LC
Codec ID : 40
Duration : 1h 26mn
Bit rate mode : Variable
Bit rate : 123 Kbps
Maximum bit rate : 144 Kbps
Channel(s) : 2 channels
Channel positions : Front: L R
Sampling rate : 48.0 KHz
Compression mode : Lossy
Delay relative to video : 80ms
Stream size : 76.0 MiB (13%)
Внимание! Раздача ведётся путём добавления новых серий; при каждом добавлении создётся новый торрент. Чтобы начать докачку новой серии, пользователям необходимо сделать следующее:
-Остановить скачивание.
-Удалить старый торрент у себя из клиента (старые серии удалять не надо).
-Скачать новый торрент и запустить его у себя в клиенте вместо старого, при этом указать клиенту путь в старую папку куда и должно происходить скачивание новых серий.
Ваш клиент при этом должен произвести хеширование (проверку) старой папки (если не производит сам - помогите ему сделать это), и будет докачивать только те серии которых у вас ещё нет. Старые серии при этом не удаляются, а продолжают раздаваться!
Если вы уже удалили старые серии, то предотвратить повторную закачку старых серий можно, отжав галочку в соответствующих местах при запуске нового торрента. По возможности, желательно не удалять старые серии как можно дольше чтобы релизёр не столько продолжал раздавать старые серии, а смог сконцентрироваться на новых.
Оригинальные субтитры кроме реплик героев содержат также дублирование различных звуков(выстрелов,звонков,зевки,итд)
Поэтому мы делим переведенные субтитры на 2 типа.
1)по умолчанию(название совпадает с именем видеофайла)-эти самые звуки отсутствуют
2)extra.sub - здесь же звуки есть и переведены. эта версия рекомендуется для людей с ослабленным слухом
Выбирайте на ваш вкус



Скачать Шерлок.Sherlock.(3х1-2.из.3).(Джереми.Лавринг.Колм.Маккарти.Ник.Харран).[2014.детектив.драма.HDTVRip].[Rus.Subs.(MemoryOnSmells)]+[Origina].torrent без регистрации
Золото ЗОЛОТАЯ РАЗДАЧА! СКАЧАННОЕ НЕ ЗАСЧИТЫВАЕТСЯ! Золото
Дата: Зарегистрирован   [ Тип: внутренний ] Как тут cкачать?
MAGNET ссылка
MAGNET ссылка


Скачать .torrent

13 KB

Статус: проверено DHT
Скачан: торрент - 100 раз, раздача полностью - 2 раз
Размер: 1,15 GB
Оценка:  - (Голосов: 0)
Поблагодарили: 0
Поделиться ссылкой на эту раздачу с друзьями:
В контактеFacebookОдноклассникиTwitterLivejournalМой МирLiveinternet
 

 
Показать сообщения:    


Вы не можете начинать темы
Вы не можете отвечать на сообщения
Вы не можете редактировать свои сообщения
Вы не можете удалять свои сообщения
Вы не можете голосовать в опросах
Вы не можете прикреплять файлы к сообщениям
Вы можете скачивать файлы