Loading...
Error

Скачать Шерлок / Sherlock Шерлок / Sherlock (3х1-2 из 3) (Джереми Лавринг, Колм Маккарти, Ник Харран) [2014, детектив, драма, HDTVRip] [1080p] [Rus Subs (MemoryOnSmells)]+[Origina] торрент без регистрации

 
Статистика раздачи
Размер:  6,53 GB   |    Скачан:  136 раз
Сидов:  1  [  0 KB/s  ]  
 
Автор Сообщение

МихаНЕзатор

[] 



Шерлок / Sherlock


Год выпуска: 2014
Страна: Великобритания
Жанр: детектив, драма
Продолжительность: ~90 минут
Перевод: Субтитры [N-Team]
Режиссёр: Джереми Лавринг, Колм Маккарти, Ник Харран
В ролях: Бенедикт Камбербэтч, Мартин Фримэн, Руперт Грейвс, Эндрю Скотт, Марк Гэтисс, Уна Стаббс

Описание: 2 года прошло с момента "смерти" детектива в шляпе. Смог ли выжить любимый герой, смотрите в новом сезоне.



Качество: WEB-DL 1080p
Контейнер: MKV
Видео: H.264, 1912x1072 (16:9), 25.000 fps, 4730 kbps, 0.092 bit/pixel
Аудио: AC3, 48 KHz, 6 ch, 384 Kbps
Субтитры: softsub (SRT), русские, английские

АНОНСЫ ПОПУЛЯРНЫХ РАЗДАЧ

1. The Empty Hearse / Пустой катафалк
2. The Sign of Three / Знак трёх
General
Unique ID : 226581716701008046854684652165268536678 (0xAA760D224AE86ACBA264179409E07D66)
Complete name : D:\Видео\Sherlock Season 3 HD 1080p [N-Team]\Sherlock.S03E01.The.Empty.Hearse.mkv
Format : Matroska
Format version : Version 2
File size : 3.15 GiB
Duration : 1h 26mn
Overall bit rate : 5 217 Kbps
Encoded date : UTC 2014-01-02 04:17:30
Writing application : mkvmerge v5.8.0 ('No Sleep / Pillow') built on Sep 2 2012 15:37:04
Writing library : libebml v1.2.3 + libmatroska v1.3.0
Video
ID : 1
Format : AVC
Format/Info : Advanced Video Codec
Format profile : High@L4.0
Format settings, CABAC : Yes
Format settings, ReFrames : 4 frames
Codec ID : V_MPEG4/ISO/AVC
Duration : 1h 26mn
Bit rate : 4 730 Kbps
Width : 1 912 pixels
Height : 1 072 pixels
Display aspect ratio : 16:9
Frame rate mode : Constant
Frame rate : 25.000 fps
Color space : YUV
Chroma subsampling : 4:2:0
Bit depth : 8 bits
Scan type : Progressive
Bits/(Pixel*Frame) : 0.092
Stream size : 2.86 GiB (91%)
Language : English
Default : Yes
Forced : No
Color primaries : BT.709
Transfer characteristics : BT.709
Matrix coefficients : BT.709
Audio
ID : 2
Format : AC-3
Format/Info : Audio Coding 3
Mode extension : CM (complete main)
Format settings, Endianness : Big
Codec ID : A_AC3
Duration : 1h 26mn
Bit rate mode : Constant
Bit rate : 384 Kbps
Channel(s) : 6 channels
Channel positions : Front: L C R, Side: L R, LFE
Sampling rate : 48.0 KHz
Bit depth : 16 bits
Compression mode : Lossy
Stream size : 238 MiB (7%)
Language : English
Default : Yes
Forced : No
Внимание! Раздача ведётся путём добавления новых серий; при каждом добавлении создётся новый торрент. Чтобы начать докачку новой серии, пользователям необходимо сделать следующее:
-Остановить скачивание.
-Удалить старый торрент у себя из клиента (старые серии удалять не надо).
-Скачать новый торрент и запустить его у себя в клиенте вместо старого, при этом указать клиенту путь в старую папку куда и должно происходить скачивание новых серий.
Ваш клиент при этом должен произвести хеширование (проверку) старой папки (если не производит сам - помогите ему сделать это), и будет докачивать только те серии которых у вас ещё нет. Старые серии при этом не удаляются, а продолжают раздаваться!
Если вы уже удалили старые серии, то предотвратить повторную закачку старых серий можно, отжав галочку в соответствующих местах при запуске нового торрента. По возможности, желательно не удалять старые серии как можно дольше чтобы релизёр не столько продолжал раздавать старые серии, а смог сконцентрироваться на новых.
Оригинальные субтитры кроме реплик героев содержат также дублирование различных звуков(выстрелов,звонков,зевки,итд)
Поэтому мы делим переведенные субтитры на 2 типа.
1)по умолчанию(название совпадает с именем видеофайла)-эти самые звуки отсутствуют
2)extra.sub - здесь же звуки есть и переведены. эта версия рекомендуется для людей с ослабленным слухом
Выбирайте на ваш вкус



Скачать Шерлок.Sherlock.Шерлок.Sherlock.(3х1-2.из.3).(Джереми.Лавринг.Колм.Маккарти.Ник.Харран).[2014.детектив.драма.HDTVRip].[1080p].[Rus.Subs.(MemoryOnSmells)]+[Origina].torrent без регистрации
Золото ЗОЛОТАЯ РАЗДАЧА! СКАЧАННОЕ НЕ ЗАСЧИТЫВАЕТСЯ! Золото
Дата: Зарегистрирован   [ Тип: внутренний ] Как тут cкачать?
MAGNET ссылка
MAGNET ссылка


Скачать .torrent

18 KB

Статус: проверено DHT
Скачан: торрент - 136 раз, раздача полностью - 2 раз
Размер: 6,53 GB
Оценка:  - (Голосов: 0)
Поблагодарили: 0
Поделиться ссылкой на эту раздачу с друзьями:
В контактеFacebookОдноклассникиTwitterLivejournalМой МирLiveinternet
 

 
Показать сообщения:    


Вы не можете начинать темы
Вы не можете отвечать на сообщения
Вы не можете редактировать свои сообщения
Вы не можете удалять свои сообщения
Вы не можете голосовать в опросах
Вы не можете прикреплять файлы к сообщениям
Вы можете скачивать файлы