Loading...
Error

Скачать Ведьмы Ист-Энда / Witches of East End (сезон 1, серия 1-10 из 10) ( Джон Скотт, Аллан Аркуш, Фред Гербер ) [2013, комедия, драма, фэнтези , WEB-DLRip-AVC 1080p] [DD5.1] [NewStudio] торрент без регистрации

 
Статистика раздачи
Размер:  17,33 GB   |    Скачан:  277 раз
Сидов:  1  [  0 KB/s  ]  
 
Автор Сообщение

Nikolai.Baranov

[] 



Ведьмы Ист-Энда / Witches of East End




Год выпуска: 2013
Выпущено: США , Fox 21
Жанр: комедия, драма, фэнтези
Продолжительность: 00:42:00
Сезон: 1
Серия: 1-10
Количество серий в сезоне: 10
Перевод: Weirdie
Озвучка:Профессиональная многоголосая закадровая|NewStudio|,Константин Погодаев, Анна Тух, Татьяна Манетина, Ирина Воронова
Субтитры: Нет



Режиссер: Джон Скотт, Аллан Аркуш, Фред Гербер / John Scott, Allan Arkush, Fred Gerber

В ролях: Джулия Ормонд, Дженна Деван-Татум, Рейчел Бостон, Медкен Эмик, Эрик Винтер, Дэниэл ДиТомассо, Джейсон Уинстон Джордж, Вирджиния Мэдсен, Тия Сиркар, Энтони Лемке


В сериале рассказывается о жизни семьи ведьм: матери и двух ее дочерей — об их радостях, проблемах, любви и страданиях, об их непростых отношениях с миром обычных людей, об опасностях, которые их подстерегают из-за их сверхъестественных сил, но это еще далеко не все мистические герои данного сериала, есть и другие, не менее интересные, загадочные и очень опасные.

Я не фанат мелодрам, но этот сериал, не смотря на наличие большого количества элементов и сюжетных поворотов присущих данному жанру, мне понравился, во-первых: потому, что в сюжете есть еще и весьма интересная мистическая составляющая: множество интригующих и пугающих загадок, связанных с миром колдовства и магии, во-вторых: сериал снят так, что смотрится очень легко и ненавязчиво, происходящее на экране затягивает быстро и незаметно.

Отдельно хочу отметить главных героинь сериала: они — замечательные: эмоциональные, яркие, харизматичные, хорошоо прописанные персонажи плюс отличная актерская игра заставляют сопереживать им с первых минут просмотра. А тетя Венди — вообще неподражаема!


Качество : WEB-DLRip-AVC 1080p
Формат: MPEG-4
Видео кодек: H264
Видео: 5521Кбит/сек,1920х1080(16.9),в 25.000кадр/сек,AVC(Baseline@L4.0)(1Ref Frames)
Аудио кодек: AAC
Аудио Russian Dolby Digital 5.1:440Кбит/сек,44.1КГц,6каналов,AAC,(Version4)


Звуковая дорожка сделана путем наложения чистого голоса озвучивателей на центральный канал оригинальной дорожки. Качество идентично звуковой дорожке.



01. Пилот / Pilot
02. Мэрилин Фенвик, покойся с миром / Marilyn Fenwick, R.I.P.
03. Я сегодня ведьма / Today I Am a Witch
04. Несколько хороших талисманов / A Few Good Talismen
05. Электрик-авеню / Electric Avenue
06. Сила ночи / Potentia Noctis
07. Непогребённая / Unburied
08. Глаза змеи / Snake Eyes
09. Гроб диманши / A Parching Imbued
10. Что за мир! / Oh, What a World!



General
Полное имя : D:\С Е Р И А Л Ы\Новая папка\Witches_of_East_End_2013_S01_RUS[NewStudio_TV]_DD5.1_x264_Nikolai.Baranov_WEB-DLRip-AVC_(1080p)\Witches_of_East_End_2013_S01E01_RUS[NewStudio_TV]_DD5.1_x264_Nikolai.Baranov_WEB-DLRip-AVC_(1080p).mp4
Формат : MPEG-4
Профиль формата : Base Media
Идентификатор кодека : isom
Размер файла : 1.79 GiB
Продолжительность : 42mn 56s
Режим общего битрейта : Variable
Общий поток : 5 965 Kbps
Дата кодирования : UTC 2014-01-03 11:06:51
Дата пометки : UTC 2014-01-03 11:06:51
Программа кодирования : Lavf51.12.1

Video
Идентификатор : 1
Формат : AVC
Формат/Информация : Advanced Video Codec
Профиль формата : Baseline@L4.0
Параметр CABAC формата : No
Параметр ReFrames формата : 1 frame
Параметр GOP формата : M=1, N=12
Идентификатор кодека : avc1
Идентификатор кодека/Информация : Advanced Video Coding
Продолжительность : 42mn 56s
Вид битрейта : Variable
Битрейт : 5 521 Kbps
Максимальный битрейт : 7 950 Kbps
Ширина : 1 920 pixels
Высота : 1 080 pixels
Соотношение сторон : 16:9
Режим частоты кадров : Constant
Частота кадров : 25.000 fps
Частота кадров в оригинале : 24.000 fps
Цветовое пространство : YUV
Субдискретизация насыщенности : 4:2:0
Битовая глубина : 8 bits
Тип развёртки : Progressive
Бит/(Пиксели*Кадры) : 0.106
Размер потока : 1.66 GiB (93%)
Язык : English
Дата кодирования : UTC 2014-01-03 11:06:51
Дата пометки : UTC 2014-01-03 11:06:51

Audio
Идентификатор : 2
Формат : AAC
Формат/Информация : Advanced Audio Codec
Профиль формата : LC
Идентификатор кодека : 40
Продолжительность : 42mn 56s
Вид битрейта : Variable
Битрейт : 440 Kbps
Каналы : 6 channels
Расположение каналов : Front: L C R, Side: L R, LFE
Частота : 44.1 KHz
Метод сжатия : Lossy
Размер потока : 135 MiB (7%)
Язык : Russian
Дата кодирования : UTC 2014-01-03 11:06:51
Дата пометки : UTC 2014-01-03 11:06:51







1. Открыть торрент
2. Снять галки с тех файлов торрента, которые мы не хотим закачивать. Оставляем только на нужных нам файлах (файле).
3. Нажать О.К.

В клиенте utorrent

Инструкция

1) Открыть торрент


2) Снять галки с тех файлов торрента, которые мы не хотим закачивать:

* либо вручную, снимая с каждого файла галку( скрин №1)
* либо, нажав кнопку "Снять метки (Select None)", сняв сразу со всех файлов(скрин №2)
№1

№2

Оставляем только на нужных нам файлах (файле).

3)Нажать О.К


ПРИЯТНОГО ПРОСМОТРА .

Релиз от: Nikolai.Baranov










Скачать Ведьмы.Ист-Энда.Witches.of.East.End.(сезон.1.серия.1-10.из.10).(.Джон.Скотт.Аллан.Аркуш.Фред.Гербер.).[2013.комедия.драма.фэнтези.WEB-DLRip-AVC.1080p].[DD5.1].[NewStudio].torrent без регистрации
Золото ЗОЛОТАЯ РАЗДАЧА! СКАЧАННОЕ НЕ ЗАСЧИТЫВАЕТСЯ! Золото
Дата: Зарегистрирован   [ Тип: внутренний ] Как тут cкачать?
MAGNET ссылка
MAGNET ссылка


Скачать .torrent

45 KB

Статус: проверено DHT
Скачан: торрент - 277 раз, раздача полностью - 4 раз
Размер: 17,33 GB
Оценка:  - (Голосов: 0)
Поблагодарили: 1
Поделиться ссылкой на эту раздачу с друзьями:
В контактеFacebookОдноклассникиTwitterLivejournalМой МирLiveinternet
 

 
Показать сообщения:    


Вы не можете начинать темы
Вы не можете отвечать на сообщения
Вы не можете редактировать свои сообщения
Вы не можете удалять свои сообщения
Вы не можете голосовать в опросах
Вы не можете прикреплять файлы к сообщениям
Вы можете скачивать файлы