Loading...
Error

Скачать Надувная кукла / Air Doll / K«ki ningy¤ (Хирокадзу Корээда) [2009, фэнтези, драма, WEB-DLRip-AVC] [MVO]+[Sub]+[Оригинал] торрент без регистрации

 
Статистика раздачи
Размер:  1,45 GB   |    Скачан:  124 раза
Сидов:  4  [  0 KB/s  ]  
 
Автор Сообщение

Marsianka

[] 

Надувная кукла
Air Doll / K«ki ningy¤

«Очень человечная история»



Страна: Япония
Студия: Asmik Ace Entertainment, Bandai Visual Co. Ltd., Eisei Gekijo, Engine Film Inc., TV Man Union
Жанр: фэнтези, драма
Год выпуска: 2009
Продолжительность: 01:56:06

Перевод: Профессиональный (многоголосый закадровый)
Cубтитры: русские
Оригинальная аудиодорожка: Японский

Режиссер:
Хирокадзу Корээда / Hirokazu Koreeda

В ролях:
Пэ Ду На, Арата Иура, Ицудзи Итао, Дзё Одагири, Джанко Фуджи, Сей Андо, Тасуку Эмото, Мари Хошино, Рё Ивамацу, Томоми Маруяма

Описание:
Она всего лишь надувная кукла, которую холит и лелеет малосимпатичный владелец. Ежевечерние предания утехам с искусственной женщиной столь чувственны, что в один из дней оживляют ее. Очаровательная девушка, чей разум по-детски наивен и чист, начинает постигать окружающий мир. Блуждая по городу, она знакомится с симпатичным продавцом видеомагазина и влюбляется в него.



Релиз: |

Автор рипа: Stalker oK

Сэмпл: multi-up

Качество видео: WEB-DLRip-AVC [исходник Air.Doll.2009.720p.WEB-DL.Rus.Jpn.HDCLUB]
Формат видео: MKV
Видео кодек: AVC
Аудио кодек: AC3
Видео: 1405 Кбит/сек, 934*502 (1,861), в 23,976 кадр/сек, AVC
Аудио #1: Russian, 192 Кбит/сек, 48,0 КГц, 16 бит, 2 канала(ов), AC-3
Аудио #2: Japanese, 192 Кбит/сек, 48,0 КГц, 16 бит, 2 канала(ов), AC-3

Общее
Уникальный идентификатор : 253399364718850826991134023009086430163 (0xBEA2F143C0AF18B3AC418F6906AF5BD3)
Полное имя : H:КуклаNaduvnaja_kukla_2009_WEB-DLRip_AVC_MVO__stalkerok_new-team.mkv
Формат : Matroska
Размер файла : 1,45 Гбайт
Продолжительность : 1 ч. 56 м.
Общий поток : 1791 Кбит/сек
Название фильма : Air Doll (2009) (New-Team) (Rip by Stalker oK)
Дата кодирования : UTC 2014-01-09 11:42:47
Программа кодирования : mkvmerge v6.2.0 ('Promised Land') built on Apr 28 2013 12:22:01
Библиотека кодирования : libebml v1.3.0 + libmatroska v1.4.0

Видео
Идентификатор : 1
Формат : AVC
Формат/Информация : Advanced Video Codec
Профиль формата : High@L4.1
Параметр CABAC формата : Да
Параметр ReFrames формата : 11 кадры
Идентификатор кодека : V_MPEG4/ISO/AVC
Продолжительность : 1 ч. 56 м.
Битрейт : 1405 Кбит/сек
Ширина : 934 пикс.
Высота : 502 пикс.
Соотношение сторон : 1,861
Частота кадров : 23,976 кадр/сек
Цветовое пространство : YUV
Подвыборка цветности : 4:2:0
Битовая глубина : 8 бит
Тип развёртки : Прогрессивная
Бит/(Пиксели*Кадры) : 0.125
Размер потока : 1,11 Гбайт (77%)
Библиотека кодирования : x264 core 138 r2358 9e941d1
Настройки программы : cabac=1 / ref=11 / deblock=1:-2:-1 / analyse=0x3:0x133 / me=umh / subme=10 / psy=1 / psy_rd=1.05:0.15 / mixed_ref=1 / me_range=48 / chroma_me=1 / trellis=2 / 8x8dct=1 / cqm=0 / deadzone=21,11 / fast_pskip=0 / chroma_qp_offset=-3 / threads=6 / lookahead_threads=1 / sliced_threads=0 / nr=0 / decimate=0 / interlaced=0 / bluray_compat=0 / constrained_intra=0 / bframes=13 / b_pyramid=2 / b_adapt=2 / b_bias=0 / direct=3 / weightb=1 / open_gop=0 / weightp=2 / keyint=240 / keyint_min=23 / scenecut=40 / intra_refresh=0 / rc_lookahead=80 / rc=2pass / mbtree=1 / bitrate=1405 / ratetol=1.0 / qcomp=0.65 / qpmin=0 / qpmax=69 / qpstep=4 / cplxblur=20.0 / qblur=0.5 / vbv_maxrate=30000 / vbv_bufsize=40000 / nal_hrd=none / ip_ratio=1.40 / aq=2:1.00

Аудио #1
Идентификатор : 2
Формат : AC-3
Формат/Информация : Audio Coding 3
Расширение режима : CM (complete main)
Идентификатор кодека : A_AC3
Продолжительность : 1 ч. 56 м.
Вид битрейта : Постоянный
Битрейт : 192 Кбит/сек
Канал(ы) : 2 канала(ов)
Расположение каналов : Front: L R
Частота : 48,0 КГц
Битовая глубина : 16 бит
Метод сжатия : С потерями
Размер потока : 159 Мбайт (11%)
Заголовок : AC3 2.0 @ 192 kbps - MVO
Язык : Russian

Аудио #2
Идентификатор : 3
Формат : AC-3
Формат/Информация : Audio Coding 3
Расширение режима : CM (complete main)
Идентификатор кодека : A_AC3
Продолжительность : 1 ч. 56 м.
Вид битрейта : Постоянный
Битрейт : 192 Кбит/сек
Канал(ы) : 2 канала(ов)
Расположение каналов : Front: L R
Частота : 48,0 КГц
Битовая глубина : 16 бит
Метод сжатия : С потерями
Размер потока : 159 Мбайт (11%)
Заголовок : AC3 2.0 @ 192 kbps
Язык : Japanese

Текст
Идентификатор : 4
Формат : UTF-8
Идентификатор кодека : S_TEXT/UTF8
Идентификатор кодека/Информация : UTF-8 Plain Text
Язык : Russian

Меню
00:00:00.000 : en:гігёггг1
00:20:01.000 : en:гігёггг2
00:39:58.000 : en:гігёггг3
01:00:12.000 : en:гігёггг4
01:19:56.000 : en:гігёггг5
01:39:27.000 : en:гігёггг6



Скачать Надувная.кукла.Air.Doll.K«ki.ningy¤.(Хирокадзу.Корээда).[2009.фэнтези.драма.WEB-DLRip-AVC].[MVO]+[Sub]+[Оригинал].torrent без регистрации
Золото ЗОЛОТАЯ РАЗДАЧА! СКАЧАННОЕ НЕ ЗАСЧИТЫВАЕТСЯ! Золото
Дата: Зарегистрирован   [ Тип: внешний ] Как тут cкачать?
MAGNET ссылка
MAGNET ссылка


Скачать .torrent

15 KB

Статус: проверено DHT
Скачан: торрент - 124 раз, раздача полностью - 6 раз
Размер: 1,45 GB
Оценка:  - (Голосов: 0)
Поблагодарили: 4
Поделиться ссылкой на эту раздачу с друзьями:
В контактеFacebookОдноклассникиTwitterLivejournalМой МирLiveinternet
 

 
Показать сообщения:    


Вы не можете начинать темы
Вы не можете отвечать на сообщения
Вы не можете редактировать свои сообщения
Вы не можете удалять свои сообщения
Вы не можете голосовать в опросах
Вы не можете прикреплять файлы к сообщениям
Вы можете скачивать файлы