Loading...
Error

Скачать Дамское счастье / The Paradise (сезон 02) (Дэвид Друри, Марк Йобст, Сьюзэн Талли) [2012, драма, WEB-DLRip] [MVO (BaibaKo)] торрент без регистрации

 
Статистика раздачи
Размер:  6,22 GB   |    Скачан:  135 раз
Сидов:  1  [  0 KB/s  ]  
 
Автор Сообщение

МихаНЕзатор

[] 

Информация о фильме
Название: Дамское счастье
Оригинальное название: The Paradise
Год выхода: 2013
Жанр: драма
Режиссер: Дэвид Друри, Марк Йобст, Сьюзэн Талли

В ролях: Джоэнна Вандерхам, Иман Эллиотт, Стивен Уайт, Соня Кэссиди, Мэттью МакНалти, Элейн Кэссиди, Финн Барридж, Дэвид Хеймен, Питер Уайт, Сара Ланкашир

О фильме: Экранизация одноименного романа Эмиля Золя, действие которого перенесено из Парижа в Англию 1890-х годов и рассказывает историю юной девушки Дениз, которая попадает в большой город без каких-либо средств к существованию и устраивается на работу в магазин для дам. Очень скоро она понимает, что за восхитительной витриной скрывается мир интриг, любовных связей и борьбы за власть.



Страна: Великобритания
Студия: BBC One
Продолжительность: ~00:58:00 серия
Перевод: Профессиональный (многоголосый закадровый) [BaibaKo] / Оригинал (английский)

Файл
Кодек: XviD / MP3
Качество: WEB-DLRip
Видео: XviD, 720x400 (16:9), 25.000 fps, ~1500 kbps, 0.208 bit/pixel
Звук:
Аудио Rus: (MP3, 48,0 KHz, 2 ch, 192 kb/s)- многоголосый закадровый
Аудио Eng: (MP3, 48,0 KHz, 2 ch, 192 kb/s)- оригинал
General
Complete name : /Дамское счастье (Сезон 2) The Paradise (2013) WEB-DLRip - BaibaKo/The.Paradise.s02e01.WEB-DLRip.XviD.Rus-Eng.BaibaKo.tv.avi
Format : AVI
Format/Info : Audio Video Interleave
File size : 799 MiB
Duration : 58mn 49s
Overall bit rate : 1 899 Kbps
Writing application : VirtualDubMod 1.5.10.2 (build 2542/release)
Writing library : VirtualDubMod build 2542/release

Video
ID : 0
Format : MPEG-4 Visual
Format profile : Advanced Simple@L5
Format settings, BVOP : 2
Format settings, QPel : No
Format settings, GMC : No warppoints
Format settings, Matrix : Default (H.263)
Codec ID : XVID
Codec ID/Hint : XviD
Duration : 58mn 49s
Bit rate : 1 500 Kbps
Width : 720 pixels
Height : 400 pixels
Display aspect ratio : 16:9
Frame rate : 25.000 fps
Color space : YUV
Chroma subsampling : 4:2:0
Bit depth : 8 bits
Scan type : Progressive
Compression mode : Lossy
Bits/(Pixel*Frame) : 0.208
Stream size : 631 MiB (79%)
Writing library : XviD 1.2.1 (UTC 2008-12-04)

Audio #1
ID : 1
Format : MPEG Audio
Format version : Version 1
Format profile : Layer 3
Mode : Joint stereo
Codec ID : 55
Codec ID/Hint : MP3
Duration : 58mn 49s
Bit rate mode : Constant
Bit rate : 192 Kbps
Channel(s) : 2 channels
Sampling rate : 48.0 KHz
Compression mode : Lossy
Stream size : 80.8 MiB (10%)
Alignment : Aligned on interleaves
Interleave, duration : 40 ms (1.00 video frame)
Interleave, preload duration : 504 ms
Writing library : LAME3.99r
Encoding settings : -m j -V 4 -q 2 -lowpass 18.6 -b 192

Audio #2
ID : 2
Format : MPEG Audio
Format version : Version 1
Format profile : Layer 3
Mode : Joint stereo
Codec ID : 55
Codec ID/Hint : MP3
Duration : 58mn 49s
Bit rate mode : Constant
Bit rate : 192 Kbps
Channel(s) : 2 channels
Sampling rate : 48.0 KHz
Compression mode : Lossy
Stream size : 80.8 MiB (10%)
Alignment : Aligned on interleaves
Interleave, duration : 40 ms (1.00 video frame)
Interleave, preload duration : 504 ms
Writing library : LAME3.99r
Encoding settings : -m j -V 4 -q 2 -lowpass 18.6 -b 192



Скачать Дамское.счастье.The.Paradise.(сезон.02).(Дэвид.Друри.Марк.Йобст.Сьюзэн.Талли).[2012.драма.WEB-DLRip].[MVO.(BaibaKo)].torrent без регистрации
Золото ЗОЛОТАЯ РАЗДАЧА! СКАЧАННОЕ НЕ ЗАСЧИТЫВАЕТСЯ! Золото
Дата: Зарегистрирован   [ Тип: внутренний ] Как тут cкачать?
MAGNET ссылка
MAGNET ссылка


Скачать .torrent

18 KB

Статус: проверено DHT
Скачан: торрент - 135 раз, раздача полностью - 25 раз
Размер: 6,22 GB
Оценка:  - (Голосов: 0)
Поблагодарили: 0
Поделиться ссылкой на эту раздачу с друзьями:
В контактеFacebookОдноклассникиTwitterLivejournalМой МирLiveinternet
 

 
Показать сообщения:    


Вы не можете начинать темы
Вы не можете отвечать на сообщения
Вы не можете редактировать свои сообщения
Вы не можете удалять свои сообщения
Вы не можете голосовать в опросах
Вы не можете прикреплять файлы к сообщениям
Вы можете скачивать файлы