Loading...
Error

Скачать Анжелика и Султан / Angelique et le Sultan (Бернар Бордери) [1968, мелодрама, приключения, HDTVRip] [Dub] торрент без регистрации

 
Статистика раздачи
Размер:  1,36 GB   |    Скачан:  108 раз
Сидов:  1  [  0 KB/s  ]  
 
Автор Сообщение

Marsianka

[] 

Информация о фильме
Название: Анжелика и Султан
Оригинальное название: Angelique et le Sultan
Год выхода: 1968
Жанр: мелодрама, приключения
Режиссер: Бернар Бордери
В ролях: Мишель Мерсье, Жан-Клод Паскаль, Робер Оссейн, Хельмут Шнайдер, Али Бен Айед, Анри Коган, Роже Пика, Жак Санти, Эрно Криса, Сигхардт Рупп

О фильме:
Очередная серия приключений знаменитой французской красавицы. Отвергнутая Версалем и преследуемая королевскими слугами,Анжелика оказывается на Востоке. Захваченная в плен воинами арабского султана, она попадает к нему в гарем, но в очередной раз доказывает свою преданность и любовь к мужу. Единственное чувство,согревающее сердце Анжелики, - это надежда вновь обрести своего возлюбленного....



Страна: Франция, Италия, Германия (ФРГ), CICC, Cinephonic, Divina-Film, Fono Roma, Francos Films, Gloria-Film GmbH
Продолжительность: 01:17:59
Перевод: Дублированный

Файл
Кодек: XviD
Качество: HDTVRip
Видео: 704x304, 25.000 fps, 2296 kbps
Звук: AC3, 192 kbps, 2 ch, 48.0 khz
Общее
Полное имя : Anzhelika.i.sultan.1968.HDTVRip.avi
Формат : AVI
Формат/Информация : Audio Video Interleave
Размер файла : 1,36 Гбайт
Продолжительность : 1 ч. 17 м.
Общий поток : 2498 Кбит/сек
Программа кодирования : VirtualDubMod 1.5.10.3 | www.virtualdub-fr.org || (build 2550/release)
Библиотека кодирования : VirtualDubMod build 2550/release

Видео
Идентификатор : 0
Формат : MPEG-4 Visual
Профиль формата : Advanced Simple@L5
Параметр BVOP формата : 1
Параметр QPel формата : Нет
Параметр GMC формата : Без точки перехода
Параметр матрицы формата : Выборочная
Идентификатор кодека : XVID
Идентификатор кодека/Подсказка : XviD
Продолжительность : 1 ч. 17 м.
Битрейт : 2296 Кбит/сек
Ширина : 704 пикс.
Высота : 304 пикс.
Соотношение сторон : 2,35:1
Частота кадров : 25,000 кадр/сек
Цветовое пространство : YUV
Подвыборка цветности : 4:2:0
Битовая глубина : 8 бит
Тип развёртки : Прогрессивная
Метод сжатия : С потерями
Бит/(Пиксели*Кадры) : 0.429
Размер потока : 1,25 Гбайт (92%)
Библиотека кодирования : XviD 73

Аудио
Идентификатор : 1
Формат : AC-3
Формат/Информация : Audio Coding 3
Расширение режима : CM (complete main)
Идентификатор кодека : 2000
Продолжительность : 1 ч. 17 м.
Вид битрейта : Постоянный
Битрейт : 192 Кбит/сек
Канал(ы) : 2 канала(ов)
Расположение каналов : Front: L R
Частота : 48,0 КГц
Битовая глубина : 16 бит
Метод сжатия : С потерями
Размер потока : 107 Мбайт (8%)
Выравнивание : Разделение по промежуткам
Продолжительность промежутка : 40 мс. (1,00 видеокадр)
Время предзагрузки промежутка : 500 ms
Релиз от: Leon-masl



Скачать Анжелика.и.Султан.Angelique.et.le.Sultan.(Бернар.Бордери).[1968.мелодрама.приключения.HDTVRip].[Dub].torrent без регистрации
Золото ЗОЛОТАЯ РАЗДАЧА! СКАЧАННОЕ НЕ ЗАСЧИТЫВАЕТСЯ! Золото
Дата: Зарегистрирован   [ Тип: внутренний ] Как тут cкачать?
MAGNET ссылка
MAGNET ссылка


Скачать .torrent

14 KB

Статус: проверено DHT
Скачан: торрент - 108 раз, раздача полностью - 5 раз
Размер: 1,36 GB
Оценка:  - (Голосов: 0)
Поблагодарили: 1
Поделиться ссылкой на эту раздачу с друзьями:
В контактеFacebookОдноклассникиTwitterLivejournalМой МирLiveinternet
 

 
Показать сообщения:    


Вы не можете начинать темы
Вы не можете отвечать на сообщения
Вы не можете редактировать свои сообщения
Вы не можете удалять свои сообщения
Вы не можете голосовать в опросах
Вы не можете прикреплять файлы к сообщениям
Вы можете скачивать файлы