Loading...
Error

Скачать Три желания / Three Wishes (Марта Кулидж) [1995, мелодрама, HDTVRip-AVC] [MVO]+[AVO] торрент без регистрации

 
Статистика раздачи
Размер:  3,63 GB   |    Скачан:  116 раз
Сидов:  1  [  0 KB/s  ]  
 
Автор Сообщение

Marsianka

[] 

Информация о фильме
Название: Три желания
Оригинальное название: Three Wishes
Год выпуска: 1995
Жанр: мелодрама
Режиссер: Марта Кулидж
В ролях: Патрик Суэйзи, Мэри Элизабет Мастрантонио, Джозеф Мадзелло, Сет Мьюми, Майкл О Кифи, Дэвид Маршалл Грант, Дайэн Венора, Джей О. Сэндерс

О фильме:
Муж Джинны Хольман погиб во время корейской войны, и ей одной приходится воспитывать двух сыновей, Тома и Гюнтера. Мальчикам очень не хватает отца они растут неуверенными в своих силах, кажется, что у них никогда ничего не получится. Однажды мать сбивает прохожего Джека Макклауда. Джинна чувствует себя виноватой и просит его пожить в их доме, пока он не оправится от травмы. На вид обыкновенный мужчина, гость оказался непростым человеком. Обладая уникальными способностями, он заставил мальчиков поверить в чудо! И не в одно, и не в два, а в три!



Страна: США
Студия: Rysher Entertainment
Продолжительность: 01:27:37
Перевод: Профессиональный многоголосый, авторский одноголосый

Файл
Кодек: x264
Качество: HDTVRip-AVC
Видео: MPEG-4 AVC, 3464 Кбит/с, 1024x576, 23.976 кадр/с
Аудио #1: Русский (AC3, 2 ch, 192 Кбит/с) / Профессиональный многоголосый
Аудио #2: Русский (AC3, 6 ch, 448 Кбит/с) / Авторский одноголосый (Андрей Гаврилов)
Аудио #3: Английский (AC3, 6 ch, 384 Кбит/с)
Семпл
x264 [info]: frame I:1331 Avg QP:17.07 size:113116
x264 [info]: frame P:38164 Avg QP:19.91 size: 41630
x264 [info]: frame B:126941 Avg QP:21.70 size: 9977

=============================================

Уникальный идентификатор : 200982752073492895606147905042975946261 (0x9733DEBBC089257CAC3D41ED7F29F615)
Полное имя : E:MCTri.zelanija.1995.x264.HDTVRip(AVC)-MediaClubTri.zelanija.1995.x264.HDTVRip(AVC)-MediaClub.mkv
Формат : Matroska
Версия формата : Version 4 / Version 2
Размер файла : 3,63 Гбайт
Продолжительность : 1 ч. 55 м.
Общий поток : 4490 Кбит/сек
Название фильма : -= Release MediaClub =-
Дата кодирования : UTC 2014-01-08 19:58:06
Программа кодирования : mkvmerge v6.4.1 ('Omega Point') built on Sep 16 2013 22:05:10
Библиотека кодирования : libebml v1.3.0 + libmatroska v1.4.1

Видео
Идентификатор : 1
Формат : AVC
Формат/Информация : Advanced Video Codec
Профиль формата : High@L4.1
Параметр CABAC формата : Да
Параметр ReFrames формата : 10 кадров
Идентификатор кодека : V_MPEG4/ISO/AVC
Продолжительность : 1 ч. 55 м.
Битрейт : 3464 Кбит/сек
Ширина : 1024 пикселя
Высота : 576 пикселей
Соотношение сторон : 16:9
Режим частоты кадров : Постоянный
Частота кадров : 23,976 кадра/сек
Цветовое пространство : YUV
Субдискретизация насыщенности : 4:2:0
Битовая глубина : 8 бит
Тип развёртки : Прогрессивная
Бит/(Пиксели*Кадры) : 0.245
Размер потока : 2,73 Гбайт (75%)
Заголовок : Tri.zelanija.1995.x264.HDTVRip(AVC)-neni
Библиотека кодирования : x264 core 130 r2273 b3065e6
Настройки программы : cabac=1 / ref=10 / deblock=1:-3:-3 / analyse=0x3:0x113 / me=umh / subme=11 / psy=1 / psy_rd=1.00:0.15 / mixed_ref=1 / me_range=48 / chroma_me=1 / trellis=2 / 8x8dct=1 / cqm=0 / deadzone=21,11 / fast_pskip=0 / chroma_qp_offset=-3 / threads=9 / lookahead_threads=1 / sliced_threads=0 / nr=0 / decimate=0 / interlaced=0 / bluray_compat=0 / constrained_intra=0 / bframes=8 / b_pyramid=2 / b_adapt=2 / b_bias=0 / direct=3 / weightb=1 / open_gop=0 / weightp=2 / keyint=240 / keyint_min=23 / scenecut=40 / intra_refresh=0 / rc=2pass / mbtree=0 / bitrate=3464 / ratetol=1.0 / qcomp=0.60 / qpmin=0 / qpmax=69 / qpstep=4 / cplxblur=20.0 / qblur=0.5 / ip_ratio=1.40 / pb_ratio=1.30 / aq=1:1.00
Язык : English
Default : Да
Forced : Да

Аудио #1
Идентификатор : 2
Формат : AC-3
Формат/Информация : Audio Coding 3
Расширение режима : CM (complete main)
Параметр Endianness формата : Big
Идентификатор кодека : A_AC3
Продолжительность : 1 ч. 55 м.
Вид битрейта : Постоянный
Битрейт : 192 Кбит/сек
Каналы : 2 канала
Расположение каналов : Front: L R
Частота : 48,0 КГц
Битовая глубина : 16 бит
Метод сжатия : С потерями
Размер потока : 159 Мбайт (4%)
Заголовок : |Многоголосый закадровый, VHS|
Язык : Russian
Default : Да
Forced : Да

Аудио #2
Идентификатор : 3
Формат : AC-3
Формат/Информация : Audio Coding 3
Расширение режима : CM (complete main)
Параметр Endianness формата : Big
Идентификатор кодека : A_AC3
Продолжительность : 1 ч. 55 м.
Вид битрейта : Постоянный
Битрейт : 448 Кбит/сек
Каналы : 6 каналов
Расположение каналов : Front: L C R, Side: L R, LFE
Частота : 48,0 КГц
Битовая глубина : 16 бит
Метод сжатия : С потерями
Размер потока : 371 Мбайт (10%)
Заголовок : |Одноголосый закадровый, А.Гаврилов|
Язык : Russian
Default : Нет
Forced : Нет

Аудио #3
Идентификатор : 4
Формат : AC-3
Формат/Информация : Audio Coding 3
Расширение режима : CM (complete main)
Параметр Endianness формата : Big
Идентификатор кодека : A_AC3
Продолжительность : 1 ч. 55 м.
Вид битрейта : Постоянный
Битрейт : 384 Кбит/сек
Каналы : 6 каналов
Расположение каналов : Front: L C R, Side: L R, LFE
Частота : 48,0 КГц
Битовая глубина : 16 бит
Метод сжатия : С потерями
Размер потока : 318 Мбайт (9%)
Заголовок : English
Язык : English
Default : Нет
Forced : Нет

Исходник от Stuey (HDClub).
Релиз от: Rip by



Скачать Три.желания.Three.Wishes.(Марта.Кулидж).[1995.мелодрама.HDTVRip-AVC].[MVO]+[AVO].torrent без регистрации
Золото ЗОЛОТАЯ РАЗДАЧА! СКАЧАННОЕ НЕ ЗАСЧИТЫВАЕТСЯ! Золото
Дата: Зарегистрирован   [ Тип: внутренний ] Как тут cкачать?
MAGNET ссылка
MAGNET ссылка


Скачать .torrent

19 KB

Статус: проверено DHT
Скачан: торрент - 116 раз, раздача полностью - 2 раз
Размер: 3,63 GB
Оценка:  - (Голосов: 0)
Поблагодарили: 1
Поделиться ссылкой на эту раздачу с друзьями:
В контактеFacebookОдноклассникиTwitterLivejournalМой МирLiveinternet
 

 
Показать сообщения:    


Вы не можете начинать темы
Вы не можете отвечать на сообщения
Вы не можете редактировать свои сообщения
Вы не можете удалять свои сообщения
Вы не можете голосовать в опросах
Вы не можете прикреплять файлы к сообщениям
Вы можете скачивать файлы