Loading...
Error

Скачать Неукротимая Анжелика / Indomptable Angelique (Бернар Бордери) [1967, приключения, мелодрама, экранизация, HDTVRip] [Dub] торрент без регистрации

 
Статистика раздачи
Размер:  1,36 GB   |    Скачан:  102 раза

Полного источника не было: 30 минут

 
Автор Сообщение

Marsianka

[] 

Информация о фильме
Название: Неукротимая Анжелика
Оригинальное название: Indomptable Angelique
Год выхода: 1967
Жанр: приключения, мелодрама, экранизация
Режиссер: Бернар Бордери
В ролях: Мишель Мерсье, Робер Оссейн, Жан Рошфор, Этторе Манни, Бруно Дитрих, Кристиан Роде, Роже Пика, Паскуаль Мартино, Зигхардт Рупп, Ренато Де Кармине, Артуро Доминичи, Мино Доро, Жан-Луи Джемма

О фильме:

Анжелика отправляется на галере на поиски своего мужа Жоффрея де Пейрака. В плавании на корабль нападают пираты, которые продают Анжелику в рабство. Ее счастливым покупателем оказывается не кто иной как Жоффрей. Но, когда все проблемы кажутся разрешенными, Анжелику вновь похищают...



Страна: Франция, Германия (ФРГ), Италия , CICC, Cinephonic, Films Borderie, Fono Roma, Francos Films, Gloria-Film GmbH
Продолжительность: 01:19:43
Перевод: Дублированный

Файл
Кодек: XviD
Качество: HDTVRip
Видео: 720x304, 25.000 fps, 2262 kbps
Звук: AC3, 192 kbps, 2 ch, 48.0 khz
Общее
Полное имя : Neukrotimaja.Anzhelika.1967.HDTVRip.avi
Формат : AVI
Формат/Информация : Audio Video Interleave
Размер файла : 1,36 Гбайт
Продолжительность : 1 ч. 19 м.
Общий поток : 2464 Кбит/сек
Программа кодирования : VirtualDubMod 1.5.10.3 | www.virtualdub-fr.org || (build 2550/release)
Библиотека кодирования : VirtualDubMod build 2550/release

Видео
Идентификатор : 0
Формат : MPEG-4 Visual
Профиль формата : Advanced Simple@L5
Параметр BVOP формата : 1
Параметр QPel формата : Нет
Параметр GMC формата : Без точки перехода
Параметр матрицы формата : Выборочная
Идентификатор кодека : XVID
Идентификатор кодека/Подсказка : XviD
Продолжительность : 1 ч. 19 м.
Битрейт : 2262 Кбит/сек
Ширина : 720 пикс.
Высота : 304 пикс.
Соотношение сторон : 2,35:1
Частота кадров : 25,000 кадр/сек
Цветовое пространство : YUV
Подвыборка цветности : 4:2:0
Битовая глубина : 8 бит
Тип развёртки : Прогрессивная
Метод сжатия : С потерями
Бит/(Пиксели*Кадры) : 0.413
Размер потока : 1,25 Гбайт (92%)
Библиотека кодирования : XviD 73

Аудио
Идентификатор : 1
Формат : AC-3
Формат/Информация : Audio Coding 3
Расширение режима : CM (complete main)
Идентификатор кодека : 2000
Продолжительность : 1 ч. 19 м.
Вид битрейта : Постоянный
Битрейт : 192 Кбит/сек
Канал(ы) : 2 канала(ов)
Расположение каналов : Front: L R
Частота : 48,0 КГц
Битовая глубина : 16 бит
Метод сжатия : С потерями
Размер потока : 109 Мбайт (8%)
Выравнивание : Разделение по промежуткам
Продолжительность промежутка : 40 мс. (1,00 видеокадр)
Время предзагрузки промежутка : 500 ms
Релиз от: Leon-masl



Скачать Неукротимая.Анжелика.Indomptable.Angelique.(Бернар.Бордери).[1967.приключения.мелодрама.экранизация.HDTVRip].[Dub].torrent без регистрации
Золото ЗОЛОТАЯ РАЗДАЧА! СКАЧАННОЕ НЕ ЗАСЧИТЫВАЕТСЯ! Золото
Дата: Зарегистрирован   [ Тип: внутренний ] Как тут cкачать?
MAGNET ссылка
MAGNET ссылка


Скачать .torrent

14 KB

Статус: проверено DHT
Скачан: торрент - 102 раз, раздача полностью - 4 раз
Размер: 1,36 GB
Оценка:  - (Голосов: 0)
Поблагодарили: 0
Поделиться ссылкой на эту раздачу с друзьями:
В контактеFacebookОдноклассникиTwitterLivejournalМой МирLiveinternet
 

 
Показать сообщения:    


Вы не можете начинать темы
Вы не можете отвечать на сообщения
Вы не можете редактировать свои сообщения
Вы не можете удалять свои сообщения
Вы не можете голосовать в опросах
Вы не можете прикреплять файлы к сообщениям
Вы можете скачивать файлы