Loading...
Error

Скачать Почти человек / Almost Human (Брэд Андерсон, Майкл Оффер, Ларри Тенг) (сезон 1, серия 1-13 из 13) [2013-2014, фантастика, боевик, драма , WEB-DLRip-AVC 1080p] [DD5.1] [MVO] [AlexFilm] торрент без регистрации

 
Статистика раздачи
Размер:  23,33 GB   |    Скачан:  153 раза

Полного источника не было: 22 минуты

 
Автор Сообщение

Nikolai.Baranov

[] 



Почти человек / Almost Human




Год выпуска: 2013-2014
Выпущено: США , Bad Robot, Frequency Films, Warner Bros. Television
Жанр: фантастика, боевик, драма
Продолжительность: 00:44:00
Сезон: 1
Серия: 1-13
Количество серий в сезоне: 13
Озвучка:Профессиональная многоголосая закадровая( AlexFilm)вгения Тихонова
Михаил Суслов
Роман Сопко
Константин Погодаев
Татьяна Манетина (5)

Перевод: Ольга Галайда
Монтаж и сведение звука: Михаил Шорыгин
Субтитры: НЕТ

Сайт сериала:



Режиссер: Брэд Андерсон, Майкл Оффер, Ларри Тенг

В ролях: Карл Урбан, Майкл Или, Минка Келли, Майкл Ирби, Макензи Крук, Лили Тейлор, Андрей Ковски, Лиэнн Адачи, Джейсон Асунсьон, Ёсиэ Бэнкрофт, Джо Смит, Кэролайн Мэтьюз, Джейм Каллика, Элла Томас, Андрей Ковски


Действие происходит в будущем, когда порядок на улицах городов обеспечивают не только «живые» полицейские, но и высокотехнологичные андроиды. Джон Кеннекс — полицейский, который пережил одну из самых катастрофических атак на департамент полиции. Очнувшись после 17 месяцев пребывания в коме, он не может вспомнить много, но точно помнит, что его напарника убили. Его девушка ушла от него сразу после нападения. Джон потерял ногу и теперь ее заменяет сложная синтетическая конструкция…

Качество : WEB-DLRip-AVC 1080p
Формат: MPEG-4
Видео кодек: H264
Видео: 5456Кбит/сек,1920х1080(16.9),в 25.000кадр/сек,AVC(Baseline@L4.0)(1Ref Frames)
Аудио кодек: AAC
Аудио Russian Dolby Digital 5.1:453Кбит/сек,44.1КГц,6каналов,AAC,(Version4)(LC)


Звуковая дорожка сделана путем наложения чистого голоса озвучивателей на центральный канал оригинальной дорожки. Качество идентично звуковой дорожке.



01 01. Пилот / Pilot
02. Кожа / Skin
03. На связи / Are You Receiving?
04. Кессон / The Bends
05. Братья по крови / Blood Brothers
06. Аритмия / Arrhythmia
07. Игра Саймона / Simon Says
08. Вы здесь / You Are Here
09. Освобожденный / Unbound
10. Восприятие / Perception
11. Срыв / Disrupt
12. Очевидец / Beholder
13. Соломенный человек / Straw Man



General
Полное имя : D:\С Е Р И А Л Ы\Almost_Huma_2013_-_2014_S01_RUS[AlexFilm]_DD5.1_x264_Nikolai.Baranov_WEB-DLRip-AVC_(1080p)\Almost_Huma_2013_S01E01_RUS[AlexFilm]_DD5.1_x264_Nikolai.Baranov_WEB-DLRip-AVC_(1080p).mp4
Формат : MPEG-4
Профиль формата : Base Media
Идентификатор кодека : isom
Размер файла : 1.88 GiB
Продолжительность : 45mn 37s
Режим общего битрейта : Variable
Общий поток : 5 913 Kbps
Название фильма : Almost Human 1x01 Pilot @ AlexFilm
Дата кодирования : UTC 2014-01-08 04:15:36
Дата пометки : UTC 2014-01-08 04:15:36
Программа кодирования : Lavf51.12.1

Video
Идентификатор : 1
Формат : AVC
Формат/Информация : Advanced Video Codec
Профиль формата : Baseline@L4.0
Параметр CABAC формата : No
Параметр ReFrames формата : 1 frame
Параметр GOP формата : M=1, N=12
Идентификатор кодека : avc1
Идентификатор кодека/Информация : Advanced Video Coding
Продолжительность : 45mn 37s
Битрейт : 5 456 Kbps
Ширина : 1 920 pixels
Высота : 1 080 pixels
Соотношение сторон : 16:9
Режим частоты кадров : Constant
Частота кадров : 23.976 fps
Цветовое пространство : YUV
Субдискретизация насыщенности : 4:2:0
Битовая глубина : 8 bits
Тип развёртки : Progressive
Бит/(Пиксели*Кадры) : 0.110
Размер потока : 1.74 GiB (92%)
Язык : English
Дата кодирования : UTC 2014-01-08 04:15:36
Дата пометки : UTC 2014-01-08 04:15:36

Audio
Идентификатор : 2
Формат : AAC
Формат/Информация : Advanced Audio Codec
Профиль формата : LC
Идентификатор кодека : 40
Продолжительность : 45mn 37s
Вид битрейта : Variable
Битрейт : 453 Kbps
Каналы : 6 channels
Расположение каналов : Front: L C R, Side: L R, LFE
Частота : 44.1 KHz
Метод сжатия : Lossy
Размер потока : 148 MiB (8%)
Язык : Russian
Дата кодирования : UTC 2014-01-08 04:15:36
Дата пометки : UTC 2014-01-08 04:15:36








1. Открыть торрент
2. Снять галки с тех файлов торрента, которые мы не хотим закачивать. Оставляем только на нужных нам файлах (файле).
3. Нажать О.К.

В клиенте utorrent

Инструкция

1) Открыть торрент


2) Снять галки с тех файлов торрента, которые мы не хотим закачивать:

* либо вручную, снимая с каждого файла галку( скрин №1)
* либо, нажав кнопку "Снять метки (Select None)", сняв сразу со всех файлов(скрин №2)
№1

№2

Оставляем только на нужных нам файлах (файле).

3)Нажать О.К




Внимание!!! 07.03. 2014. РАЗДАЧА ОБНОВЛЕНА.ФИНАЛ СЕЗОНА.ОБНОВИТЕ ТОРЕНТ ФАЙЛ.ПРИЯТНОГО ПРОСМОТРА .

Релиз от: Nikolai.Baranov










Скачать Почти.человек.Almost.Human.(Брэд.Андерсон.Майкл.Оффер.Ларри.Тенг).(сезон.1.серия.1-13.из.13).[2013-2014.фантастика.боевик.драма.WEB-DLRip-AVC.1080p].[DD5.1].[MVO].[AlexFilm].torrent без регистрации
Золото ЗОЛОТАЯ РАЗДАЧА! СКАЧАННОЕ НЕ ЗАСЧИТЫВАЕТСЯ! Золото
Дата: Зарегистрирован   [ Тип: внутренний ] Как тут cкачать?
MAGNET ссылка
MAGNET ссылка


Скачать .torrent

60 KB

Статус: проверено DHT
Скачан: торрент - 153 раз, раздача полностью - 362 раз
Размер: 23,33 GB
Оценка:  4,8 (Голосов: 5)
Поблагодарили: 8
Поделиться ссылкой на эту раздачу с друзьями:
В контактеFacebookОдноклассникиTwitterLivejournalМой МирLiveinternet
 

 
Показать сообщения:    


Вы не можете начинать темы
Вы не можете отвечать на сообщения
Вы не можете редактировать свои сообщения
Вы не можете удалять свои сообщения
Вы не можете голосовать в опросах
Вы не можете прикреплять файлы к сообщениям
Вы можете скачивать файлы