Loading...
Error

Скачать Пуаро Агаты Кристи / Agatha Christie's Poirot (сезон 13) (Эдвард Беннет, Ренни Рай, Эндрю Грив) [2013, классический детектив, HDTVRip] [MVO] торрент без регистрации

 
Статистика раздачи
Размер:  2,39 GB   |    Скачан:  303 раза
Сидов:  1  [  0 KB/s  ]  
 
Автор Сообщение

МихаНЕзатор

[] 

посмотреть содержание сезонов

Сезон: 13
Название: Пуаро Агаты Кристи
Оригинальное название: Agatha Christie`s Poirot
Год выхода: 2013
Жанр: классический детектив
Режиссер: Эдвард Беннет, Ренни Рай, Эндрю Грив.
В ролях: Дэвид Суше, Барбара Барнс, Доминик Ружье, Аль Фиорентини, Питер Сеттелен.

Описание сериала: Вы любите настоящий классический детектив со сложной интригой и интеллектуальным расследованием? Если да, то сериал «Пуаро» по произведениям Королевы детектива Агаты Кристи для Вас. Образ знаменитого литературного героя с невероятными усами и неповторимой походкой великолепно воплощен на экране английским актером Дэвидом Суше. Для . воплощения образа великого сыщика актер проделал колоссальную работу: изучил историю Бельгии, чтобы понять, в какой среде воспитывался и рос его герой, прочел все романы и рассказы, ознакомился со всеми экранизациями, собрал не менее 24 описаний знаменитых усов Пуаро, чтобы найти единственно верный абрис, выработал особую походку и составил список из 93 пунктов, с которым всегда сверялся на съемках, чтобы не допустить оплошность: например, сколько кусков сахара Пуаро кладет в чай, а сколько - в кофе. И эта основательность была оценена по достоинству: сериал «Пуаро» признан лучшей экранизацией романов Агаты Кристи.



Выпущено: Великобритания
Продолжительность: 4x ~00:90:00
Перевод: профессиональный многоголосый

Файл
Кодек: XviD 1.2.1 Final
Качество: HDTVRip
Видео: 688x384, 25 fps, 660 kbps VBR, 16:9
Звук: 48000Hz, 96 kb/s, Joint stereo

АНОНСЫ ПОПУЛЯРНЫХ РАЗДАЧ


30.05.2014 г. торент обновлён, добавлена 5-я серия!

Format : AVI
Format/Info : Audio Video Interleave
Overall bit rate : 767 Kbps
Writing application : VirtualDubMod 1.5.10.2 (build 2540/release)
Writing library : VirtualDubMod build 2540/release

Video
ID : 0
Format : MPEG-4 Visual
Format profile : Advanced Simple@L5
Format settings, BVOP : 2
Format settings, QPel : No
Format settings, GMC : No warppoints
Format settings, Matrix : Default (H.263)
Muxing mode : Packed bitstream
Codec ID : XVID
Codec ID/Hint : XviD
Duration : 1h 29mn
Bit rate : 661 Kbps
Width : 688 pixels
Height : 384 pixels
Display aspect ratio : 16:9
Frame rate : 25.000 fps
Color space : YUV
Chroma subsampling : 4:2:0
Bit depth : 8 bits
Scan type : Progressive
Compression mode : Lossy
Bits/(Pixel*Frame) : 0.100
Stream size : 422 MiB (86%)
Writing library : XviD 1.2.1 (UTC 2008-12-04)

Audio
ID : 1
Format : MPEG Audio
Format version : Version 1
Format profile : Layer 3
Mode : Joint stereo
Mode extension : MS Stereo
Codec ID : 55
Codec ID/Hint : MP3
Duration : 1h 29mn
Bit rate mode : Constant
Bit rate : 96.0 Kbps
Channel count : 2 channels
Sampling rate : 32.0 KHz
Compression mode : Lossy
Stream size : 61.3 MiB (13%)
Alignment : Aligned on interleaves
Interleave, duration : 40 ms (1.00 video frame)
Interleave, preload duration : 504 ms



Скачать Пуаро.Агаты.Кристи.Agatha.Christie's.Poirot.(сезон.13).(Эдвард.Беннет.Ренни.Рай.Эндрю.Грив).[2013.классический.детектив.HDTVRip].[MVO].torrent без регистрации
Золото ЗОЛОТАЯ РАЗДАЧА! СКАЧАННОЕ НЕ ЗАСЧИТЫВАЕТСЯ! Золото
Дата: Зарегистрирован   [ Тип: внутренний ] Как тут cкачать?
MAGNET ссылка
MAGNET ссылка


Скачать .torrent

96 KB

Статус: проверено DHT
Скачан: торрент - 303 раз, раздача полностью - 266 раз
Размер: 2,39 GB
Оценка:  - (Голосов: 0)
Поблагодарили: 1
Поделиться ссылкой на эту раздачу с друзьями:
В контактеFacebookОдноклассникиTwitterLivejournalМой МирLiveinternet
 

 

avt7k32

[] 

А пятая серия будет?
 

МихаНЕзатор

[] 

Раздача обновлена
 
Показать сообщения:    


Вы не можете начинать темы
Вы не можете отвечать на сообщения
Вы не можете редактировать свои сообщения
Вы не можете удалять свои сообщения
Вы не можете голосовать в опросах
Вы не можете прикреплять файлы к сообщениям
Вы можете скачивать файлы