Loading...
Error

Скачать Корлеоне / Corleone (Паскуале Скуитьери / Pasquale Squitieri) [1978, триллер, криминал, DVDRip] [VO] (Andi) торрент без регистрации

 
Статистика раздачи
Размер:  1,52 GB   |    Скачан:  107 раз
Сидов:  1  [  0 KB/s  ]  
 
Автор Сообщение

leon030982

[] 

Корлеоне / Corleone


Год выпуска: 1978
Страна: Италия
Жанр: триллер, криминал
Продолжительность: 01:50:28
Перевод: Одноголосный (закадровый) [Andi]
Cубтитры: нет
Оригинальная аудиодорожка: нет

Режиссер: Паскуале Скуитьери / Pasquale Squitieri

В ролях: Джулиано Джемма, Клаудия Кардинале, Микеле Плачидо, Франсиско Рабаль, Стефано Сатта Флорес, Сальваторе Билла, Ремо Джироне, Энрико Маисто, Томмазо Палладино, Тони Кендалл, Карло Ферро, Убальдо Ло Прести, Фульвио Мингоцци, Орацио Орландо

Описание: По роману Орацио Баррезе (Orazio Barrese). Действие фильма начинается на Сицилии в 50-е годы прошлого века. Двое друзей, Микеле Лабрутцо (Плачидо) и Вито Гаргана (Джемма), оказываются по разные стороны баррикад. Микеле становится профсоюзным лидером, а Вито поступает на службу к мафиозному боссу Дону Провенцано (Рабаль). Первым приказом Дона для Вито становится устранение его друга детства Микеле. Так начинается кровавое восхождение к вершине криминального Олимпа будущего главы сицилийской мафии Дона Вито Гаргана.



Качество видео: DVDRip
Формат: AVI
Видео кодек: XviD
Аудио кодек: AC3
Видео: 720x400 (1.80:1), 25 fps, XviD build 63 ~1771 kbps avg, 0.25 bit/pixel
Аудио: 48 kHz, AC3 Dolby Digital, 2/0 (L,R) ch, ~192.00 kbps avg русский
Общее
Полное имя : L:\corleone VO Andi.avi
Формат : AVI
Формат/Информация : Audio Video Interleave
Размер файла : 1,52 Гбайт
Продолжительность : 1 ч. 50 м.
Общий поток : 1974 Кбит/сек
Программа кодирования : VirtualDubMod 1.5.10.2 (build 2540/release)
Библиотека кодирования : VirtualDubMod build 2540/release
Видео
Идентификатор : 0
Формат : MPEG-4 Visual
Профиль формата : Advanced Simple@L5
Параметр BVOP формата : 2
Параметр QPel формата : Нет
Параметр GMC формата : Без точки перехода
Параметр матрицы формата : Default (H.263)
Идентификатор кодека : XVID
Идентификатор кодека/Подсказка : XviD
Продолжительность : 1 ч. 50 м.
Битрейт : 1772 Кбит/сек
Ширина : 720 пикселей
Высота : 400 пикселей
Соотношение сторон : 16:9
Частота кадров : 25,000 кадров/сек
Цветовое пространство : YUV
Субдискретизация насыщенности : 4:2:0
Битовая глубина : 8 бит
Тип развёртки : Прогрессивная
Метод сжатия : С потерями
Бит/(Пиксели*Кадры) : 0.246
Размер потока : 1,37 Гбайт (90%)
Библиотека кодирования : XviD 63
Аудио
Идентификатор : 1
Формат : AC-3
Формат/Информация : Audio Coding 3
Расширение режима : CM (complete main)
Параметр Endianness формата : Big
Идентификатор кодека : 2000
Продолжительность : 1 ч. 50 м.
Вид битрейта : Постоянный
Битрейт : 192 Кбит/сек
Каналы : 2 канала
Расположение каналов : Front: L R
Частота : 48,0 КГц
Битовая глубина : 16 бит
Метод сжатия : С потерями
Размер потока : 152 Мбайт (10%)
Выравнивание : Разделение по промежуткам
Продолжительность промежутка : 40 мс. (1,00 видеокадр)
Время предзагрузки промежутка : 500 мс.
Огромная благодарность dimmm2v за организацию перевода, Антону Каптелову за перевод с английского



Скачать Корлеоне.Corleone.(Паскуале.Скуитьери.Pasquale.Squitieri).[1978.триллер.криминал.DVDRip].[VO].(Andi).torrent без регистрации
Золото ЗОЛОТАЯ РАЗДАЧА! СКАЧАННОЕ НЕ ЗАСЧИТЫВАЕТСЯ! Золото
Дата: Зарегистрирован   [ Тип: внутренний ] Как тут cкачать?
MAGNET ссылка
MAGNET ссылка


Скачать .torrent

16 KB

Статус: проверено DHT
Скачан: торрент - 107 раз, раздача полностью - 2 раз
Размер: 1,52 GB
Оценка:  - (Голосов: 0)
Поблагодарили: 0
Поделиться ссылкой на эту раздачу с друзьями:
В контактеFacebookОдноклассникиTwitterLivejournalМой МирLiveinternet
 

 
Показать сообщения:    


Вы не можете начинать темы
Вы не можете отвечать на сообщения
Вы не можете редактировать свои сообщения
Вы не можете удалять свои сообщения
Вы не можете голосовать в опросах
Вы не можете прикреплять файлы к сообщениям
Вы можете скачивать файлы