Loading...
Error

Скачать Увалень Томми / Tommy Boy (Питер Сигал / Peter Segal) [1995, Комедия, BDRip] [AVO] (П. Санаев) торрент без регистрации

 
Статистика раздачи
Размер:  1,45 GB   |    Скачан:  123 раза
Сидов:  1  [  0 KB/s  ]  
 
Автор Сообщение

leon030982

[] 

Увалень Томми / Tommy Boy


Год выпуска: 1995
Страна: США
Жанр: Комедия
Продолжительность: 01:37:04
Перевод : Авторский (одноголосый, закадровый) [П. Санаев]
Cубтитры: нет

Режиссер: Питер Сигал /Peter Segal

В ролях: Крис Фарли /Chris Farley/, Дэвид Спэйд /David Spade/, Бо Дерек /Bo Derek/, Джули Уорнер /Julie Warner/, Шон МакКэнн /Sean McCann/, Зак Гренье /Zach Grenier/, Джеймс Блендик /James Blendick/, Дэн Эйкройд /Dan Aykroyd/, Брайан Деннехи /Brian Dennehy
Описание
С грехом пополам закончив колледж, увалень Том возвращается в родной дом, где приходит конец его беззаботной жизни. Внезапная смерть отца перекладывает на плечи Тома управление заводом по производству автомобильных запчастей, а происки мачехи только добавляют проблем.


IMDb: 7.00 (50 052)

Качество видео: BDRip [Исх.TOMMY_BOY_REMUX_HDCLUB]
Формат видео: AVI
Видео кодек: XviD
Аудио кодек: AC-3
Видео: 704x400 (1.76:1), 23.976 fps, XviD build 63 ~1942 kbps avg, 0.29 bit/pixel
Аудио: AC-3 192 Kbps 2 channels, 48.0 KHz [П. Санаев]
General
Complete name : E:\INTERNET\Tommy Boy.1995.BDRip.[AVO] (SANAEV).avi
Format : AVI
Format/Info : Audio Video Interleave
File size : 1.45 GiB
Duration : 1h 37mn
Overall bit rate : 2 144 Kbps
Movie name : Tommy Boy (1995) BDRip
Genre : Adventure/Comedy
Writing application : VirtualDubMod 1.5.10.3 (build 2550/release)
Writing library : VirtualDubMod build 2550/release

Video
ID : 0
Format : MPEG-4 Visual
Format profile : Advanced Simple@L5
Format settings, BVOP : 1
Format settings, QPel : No
Format settings, GMC : No warppoints
Format settings, Matrix : Custom
Codec ID : XVID
Codec ID/Hint : XviD
Duration : 1h 37mn
Bit rate : 1 942 Kbps
Width : 704 pixels
Height : 400 pixels
Display aspect ratio : 16:9
Frame rate : 23.976 fps
Color space : YUV
Chroma subsampling : 4:2:0
Bit depth : 8 bits
Scan type : Progressive
Compression mode : Lossy
Bits/(Pixel*Frame) : 0.288
Stream size : 1.32 GiB (91%)
Writing library : XviD 63

Audio
ID : 1
Format : AC-3
Format/Info : Audio Coding 3
Format profile : Dolby Digital
Mode extension : CM (complete main)
Codec ID : 2000
Duration : 1h 37mn
Bit rate mode : Constant
Bit rate : 192 Kbps
Channel(s) : 2 channels
Channel positions : Front: L R
Sampling rate : 48.0 KHz
Bit depth : 16 bits
Compression mode : Lossy
Stream size : 133 MiB (9%)
Alignment : Split accross interleaves
Interleave, duration : 42 ms (1.00 video frame)
Interleave, preload duration : 500 ms



Скачать Увалень.Томми.Tommy.Boy.(Питер.Сигал.Peter.Segal).[1995.Комедия.BDRip].[AVO].(П.Санаев).torrent без регистрации
Золото ЗОЛОТАЯ РАЗДАЧА! СКАЧАННОЕ НЕ ЗАСЧИТЫВАЕТСЯ! Золото
Дата: Зарегистрирован   [ Тип: внутренний ] Как тут cкачать?
MAGNET ссылка
MAGNET ссылка


Скачать .torrent

15 KB

Статус: проверено DHT
Скачан: торрент - 123 раз, раздача полностью - 38 раз
Размер: 1,45 GB
Оценка:  - (Голосов: 0)
Поблагодарили: 2
Поделиться ссылкой на эту раздачу с друзьями:
В контактеFacebookОдноклассникиTwitterLivejournalМой МирLiveinternet
 

 
Показать сообщения:    


Вы не можете начинать темы
Вы не можете отвечать на сообщения
Вы не можете редактировать свои сообщения
Вы не можете удалять свои сообщения
Вы не можете голосовать в опросах
Вы не можете прикреплять файлы к сообщениям
Вы можете скачивать файлы