Loading...
Error

Скачать Американская семейка / Modern Family (сезон 05) (Джейсон Уайнер, Майкл Спиллер, Крис Кох) [2013, комедия, WEB-DL] [720p] [MVO (LostFilm)] торрент без регистрации

 
Статистика раздачи
Размер:  17,57 GB   |    Скачан:  2584 раза
Сидов:  1  [  0 KB/s  ]  
 
Автор Сообщение

МихаНЕзатор

[] 

Американская семейка / Modern Family


Название: Американская семейка Оригинальное название: Modern Family
Год выхода: 2013
Жанр: Комедия
Режиссер: Майкл Спиллер, Джейсон Уайнер, Гэйл Манкусо

В ролях: Эд О`Нил, София Вергара, Тай Буррелл, Джули Боуэн, Джесси Тайлер Фергюсон, Эрик Стоунстрит, Рико Родригез, Нолан Гоулд, Сара Хайланд, Эриель Винтер
О фильме:
Комедийный хит о чудаковатых семейках, который из года в год оказывается в топах всех телевизионных премий. Сериал на примере взаимоотношений трёх американских семей остроумно препарирует знакомые каждому бытовые ситуации, гендерные проблемы и полезные откровения, превращаясь в настоящую семейную энциклопедию в ироничном ключе.

Страна: США, 20th Century Fox Television, Levitan / Lloyd
Продолжительность: 11 x ~ 00:21:00
Перевод: Профессиональный многоголосый (LostFilm)
Качество: WEB-DL 720p
Видео: MPEG-4 AVC, ~ 4000 Кбит/с, 1280x718
Звук: Русский (AC3, 2 ch, 384 Кбит/с), английский (AC3, 6 ch, 384 Кбит/с)
Субтитры: Русские, английские

АНОНСЫ ПОПУЛЯРНЫХ РАЗДАЧ


13.10.2014 г. торент обновлён, добавлена 24 серия!
Общее
Уникальный идентификатор : 243415607629067194346096613971328666971 (0xB7202409445B3D02B9C94452FECA8D5B)
Полное имя : E:MF_S05_LostFilmMF_S05E01.WEB-DL.720p.mkv
Формат : Matroska
Версия формата : Version 2
Размер файла : 752 Мбайт
Продолжительность : 21 м.
Общий поток : 4860 Кбит/сек
Дата кодирования : UTC 2013-10-06 09:33:32
Программа кодирования : mkvmerge v6.4.1 ('Omega Point') built on Sep 16 2013 22:05:10
Библиотека кодирования : libebml v1.3.0 + libmatroska v1.4.1

Видео
Идентификатор : 1
Формат : AVC
Формат/Информация : Advanced Video Codec
Профиль формата : High@L3.1
Параметр CABAC формата : Нет
Параметр ReFrames формата : 2 кадра
Идентификатор кодека : V_MPEG4/ISO/AVC
Продолжительность : 21 м.
Битрейт : 3995 Кбит/сек
Ширина : 1280 пикселей
Высота : 718 пикселей
Соотношение сторон : 16:9
Режим частоты кадров : Постоянный
Частота кадров : 23,976 кадра/сек
Цветовое пространство : YUV
Субдискретизация насыщенности : 4:2:0
Битовая глубина : 8 бит
Тип развёртки : Прогрессивная
Бит/(Пиксели*Кадры) : 0.181
Размер потока : 618 Мбайт (82%)
Язык : English
Default : Да
Forced : Нет
Основные цвета : BT.709
Характеристики трансфера : BT.709
Коэффициенты матрицы : BT.709

Аудио #1
Идентификатор : 2
Формат : AC-3
Формат/Информация : Audio Coding 3
Расширение режима : CM (complete main)
Параметр Endianness формата : Big
Идентификатор кодека : A_AC3
Продолжительность : 21 м.
Вид битрейта : Постоянный
Битрейт : 384 Кбит/сек
Каналы : 2 канала
Расположение каналов : Front: L R
Частота : 48,0 КГц
Битовая глубина : 16 бит
Метод сжатия : С потерями
Размер потока : 59,4 Мбайт (8%)
Заголовок : LostFilm
Язык : Russian
Default : Да
Forced : Нет

Аудио #2
Идентификатор : 3
Формат : AC-3
Формат/Информация : Audio Coding 3
Расширение режима : CM (complete main)
Параметр Endianness формата : Big
Идентификатор кодека : A_AC3
Продолжительность : 21 м.
Вид битрейта : Постоянный
Битрейт : 384 Кбит/сек
Каналы : 6 каналов
Расположение каналов : Front: L C R, Side: L R, LFE
Частота : 48,0 КГц
Битовая глубина : 16 бит
Метод сжатия : С потерями
Размер потока : 59,4 Мбайт (8%)
Заголовок : Original
Язык : English
Default : Нет
Forced : Нет

Текст #1
Идентификатор : 4
Формат : UTF-8
Идентификатор кодека : S_TEXT/UTF8
Идентификатор кодека/Информация : UTF-8 Plain Text
Заголовок : Notabenoid
Язык : Russian
Default : Нет
Forced : Нет

Текст #2
Идентификатор : 5
Формат : UTF-8
Идентификатор кодека : S_TEXT/UTF8
Идентификатор кодека/Информация : UTF-8 Plain Text
Заголовок : Addic7ed
Язык : English
Default : Нет
Forced : Нет



Скачать Американская.семейка.Modern.Family.(сезон.05).(Джейсон.Уайнер.Майкл.Спиллер.Крис.Кох).[2013.комедия.WEB-DL].[720p].[MVO.(LostFilm)].torrent без регистрации
Золото ЗОЛОТАЯ РАЗДАЧА! СКАЧАННОЕ НЕ ЗАСЧИТЫВАЕТСЯ! Золото
Дата: Зарегистрирован   [ Тип: внутренний ] Как тут cкачать?
MAGNET ссылка
MAGNET ссылка


Скачать .torrent

46 KB

Статус: проверено DHT
Скачан: торрент - 2584 раз, раздача полностью - 22 раз
Размер: 17,57 GB
Оценка:  - (Голосов: 0)
Поблагодарили: 0
Поделиться ссылкой на эту раздачу с друзьями:
В контактеFacebookОдноклассникиTwitterLivejournalМой МирLiveinternet
 

 

МихаНЕзатор

[] 

Раздача обновлена
 
Показать сообщения:    


Вы не можете начинать темы
Вы не можете отвечать на сообщения
Вы не можете редактировать свои сообщения
Вы не можете удалять свои сообщения
Вы не можете голосовать в опросах
Вы не можете прикреплять файлы к сообщениям
Вы можете скачивать файлы