Loading...
Error

/ Two and a Half Men ( 11) ( , ) [2013, , WEB-DLRip-AVC, HDTVRip-AVC] [DVO (Jimmy J)]

 
4,91 GB   |    :  290
1  [  0 KB/s  ]  
 

[] 

Two and a Half Men - Eleventh Season
-
: 2013

:
:
: ~22 .
: ( )Jimmy J.
: ,

: , , , , , , , , , .
: , "" , - , . ? , .. - .





:
: , ( 4 ...)
: Seasonvar
1-5
: MKV
: AVC
: AC3
: AVC, 720x406, 23.976 fps, 1398 kbps avg, 0.200 bit/pixel
#1: Russian 48 kHz, AC3, 2 channels, 192 kbps |Jimmy J.|
6...
: HDTVRip-AVC
: MKV
: AVC
: AC3
: AVC, 720x406, 23.976 fps, 1200 kbps avg, 0.172 bit/pixel
#1: Russian 48 kHz, AC3, 2 channels, 192 kbps |Jimmy J.|

25.11.2014 . , 22- !

:

Complete name : D:\Two.and.a.Half.Men.S11.400p.WEB-DLRip.Jimmy.J\Two.and.a.Half.Men.S11E01.400p.WEB-DLRip.mkv
Format : Matroska
Format version : Version 2
File size : 250 MiB
Duration : 21mn 32s
Overall bit rate : 1 623 Kbps
Encoded date : UTC 2013-09-30 12:49:39
Writing application : mkvmerge v5.8.0 ('No Sleep / Pillow') built on Sep 2 2012 15:37:04
Writing library : libebml v1.2.3 + libmatroska v1.3.0
Video
ID : 1
Format : AVC
Format/Info : Advanced Video Codec
Format profile : High@L3.1
Format settings, CABAC : Yes
Format settings, ReFrames : 12 frames
Codec ID : V_MPEG4/ISO/AVC
Duration : 21mn 32s
Bit rate : 1 398 Kbps
Width : 720 pixels
Height : 406 pixels
Display aspect ratio : 16:9
Frame rate mode : Constant
Frame rate : 23.976 fps
Color space : YUV
Chroma subsampling : 4:2:0
Bit depth : 8 bits
Scan type : Progressive
Bits/(Pixel*Frame) : 0.200
Stream size : 215 MiB (86%)
Writing library : x264 core 130 r2273kMod b3065e6
Encoding settings : cabac=1 / ref=12 / deblock=1:-3:-3 / analyse=0x3:0x133 / me=umh / subme=11 / psy=1 / fade_compensate=0.00 / psy_rd=1.00:0.15 / mixed_ref=1 / me_range=32 / chroma_me=1 / trellis=2 / 8x8dct=1 / cqm=0 / deadzone=21,11 / fast_pskip=0 / chroma_qp_offset=-3 / threads=12 / lookahead_threads=3 / sliced_threads=0 / nr=0 / decimate=1 / interlaced=0 / bluray_compat=0 / constrained_intra=0 / bframes=12 / b_pyramid=2 / b_adapt=2 / b_bias=0 / direct=3 / weightb=1 / open_gop=0 / weightp=2 / keyint=240 / keyint_min=23 / scenecut=40 / intra_refresh=0 / rc_lookahead=40 / rc=crf / mbtree=1 / crf=19.0000 / qcomp=0.70 / qpmin=0 / qpmax=69 / qpstep=4 / ip_ratio=1.40 / aq=1:1.00
Language : English
Default : Yes
Forced : No
Audio
ID : 2
Format : AC-3
Format/Info : Audio Coding 3
Mode extension : CM (complete main)
Format settings, Endianness : Big
Codec ID : A_AC3
Duration : 21mn 32s
Bit rate mode : Constant
Bit rate : 192 Kbps
Channel(s) : 2 channels
Channel positions : Front: L R
Sampling rate : 48.0 KHz
Bit depth : 16 bits
Compression mode : Lossy
Stream size : 29.6 MiB (12%)
Title : DVO Jimmy J.
Language : Russian
Default : Yes
Forced : No
Format : Matroska
Format version : Version 2
File size : 216 MiB
Duration : 21mn 13s
Overall bit rate : 1 420 Kbps
Encoded date : UTC 2013-11-13 17:03:24
Writing application : mkvmerge v5.8.0 ('No Sleep / Pillow') built on Sep 2 2012 15:37:04
Writing library : libebml v1.2.3 + libmatroska v1.3.0
Video
ID : 1
Format : AVC
Format/Info : Advanced Video Codec
Format profile : High@L3.1
Format settings, CABAC : Yes
Format settings, ReFrames : 12 frames
Codec ID : V_MPEG4/ISO/AVC
Duration : 21mn 13s
Bit rate : 1 200 Kbps
Width : 720 pixels
Height : 404 pixels
Display aspect ratio : 16:9
Frame rate mode : Constant
Frame rate : 23.976 fps
Color space : YUV
Chroma subsampling : 4:2:0
Bit depth : 8 bits
Scan type : Progressive
Bits/(Pixel*Frame) : 0.172
Stream size : 182 MiB (84%)
Writing library : x264 core 138 r2358kMod 9e941d1
Encoding settings : cabac=1 / ref=12 / deblock=1:-3:-3 / analyse=0x3:0x133 / me=umh / subme=11 / psy=1 / fade_compensate=0.00 / psy_rd=1.00:0.15 / mixed_ref=1 / me_range=32 / chroma_me=1 / trellis=2 / 8x8dct=1 / cqm=0 / deadzone=21,11 / fast_pskip=0 / chroma_qp_offset=-3 / threads=12 / lookahead_threads=3 / sliced_threads=0 / nr=0 / decimate=1 / interlaced=0 / bluray_compat=0 / constrained_intra=0 / bframes=12 / b_pyramid=2 / b_adapt=2 / b_bias=0 / direct=3 / weightb=1 / open_gop=0 / weightp=2 / keyint=240 / keyint_min=23 / scenecut=40 / intra_refresh=0 / rc_lookahead=40 / rc=crf / mbtree=1 / crf=19.0000 / qcomp=0.70 / qpmin=0 / qpmax=69 / qpstep=4 / ip_ratio=1.40 / aq=1:1.00
Language : English
Default : Yes
Forced : No
Audio
ID : 2
Format : AC-3
Format/Info : Audio Coding 3
Mode extension : CM (complete main)
Format settings, Endianness : Big
Codec ID : A_AC3
Duration : 21mn 13s
Bit rate mode : Constant
Bit rate : 192 Kbps
Channel(s) : 2 channels
Channel positions : Front: L R
Sampling rate : 48.0 KHz
Bit depth : 16 bits
Compression mode : Lossy
Stream size : 29.2 MiB (14%)
Default : Yes
Forced : No

! ; . , :
(1) ,
(2) ( ),
(3) , .
() ( - ), . , !
E , , .



....Two.and.a.Half.Men.(.11).(...).[2013..WEB-DLRip-AVC.HDTVRip-AVC].[DVO.(Jimmy.J)].torrent
  ! ! 
:   [ : ] c?
MAGNET
MAGNET


.torrent

14 KB

: DHT
: - 290 , - 55
: 4,91 GB
- (: 0)
: 1
:
 FacebookTwitterLivejournal Liveinternet
 

 

[] 

 
: