Loading...
Error

Скачать Полиция Чикаго / Chicago PD (Полный 1-ый сезон) (Джо Чаппелль, Марк Тинкер) [2014, боевик, драма, WEB-DLRip] [VO] (по версии Шадинского) + Original торрент без регистрации

 
Статистика раздачи
Размер:  6,01 GB   |    Скачан:  3394 раза

Полного источника не было: 27 минут

 
Автор Сообщение

leon030982

[] 

Полиция Чикаго / Chicago PD


Год выпуска: 2014
Страна: США
Жанр: драма, криминал
Продолжительность: 15x ~00:43:00
Озвучка: Профессиональный (одноголосый закадровый) Денис Шадинский
Перевод: Anna_Gerts, ntnext, Денис Шадинский.
Русские субтитры: нет

Режиссёр: Дерек Хаас, Майкл Брандт

В ролях: Джон Седа, Джейсон Бех (Californication), София Буш (OTH, Partners), Элиас Котеас (The Killing), Джесси Ли Софер, Арчи Као, Патрик Джон Флюгер (The 4400), Марина Скверсьяти (Gossip Girl), ЛаРойс Хоккинс, Мелисса Сейджмиллер (A sleeper cell) и др.

Описание: В центре сюжета находятся работники полицейского департамента города Чикаго, в частности две группы полицейских, которые находятся на разных ступенях власти. (кинопоиск)


Качество: WEB-DLRip
Формат: AVI
Видео кодек: XviD
Аудио кодек: MP3
Видео: XviD, 624x352, 23.976 fps, ~1119 kbps avg, 0.212 bit/pixel
Аудио 1: Rus: 48 kHz, MP3, stereo 160 kbps
Аудио 2: Eng: 48 kHz, MP3, stereo 160 kbps
Спин-офф от сериала "Пожарные Чикаго"
Релиз спонсируемый. Серии выходят за счет донейта. Выход новых серий зависит только от вас. Подробности в группе вк.
Внимание! Раздача ведётся путём добавления новых серий; при каждом добавлении создаётся новый торрент. Чтобы начать докачку новой серии, пользователям необходимо сделать следующее:
(1) остановить скачивание,
(2) удалить старый торрент-файл у себя из клиента (старые серии удалять не надо),
(3) скачать новый торрент-файл из раздачи и запустить его у себя в клиенте вместо старого, при этом указать клиенту путь в старую папку куда и должно происходить скачивание новых серий.
Ваш клиент при этом должен произвести хеширование (проверку) старой папки (если не производит сам - помогите ему сделать это), и будет докачивать только те серии которых у вас ещё нет. Старые серии при этом не удаляются, а продолжают раздаваться!
Eсли вы уже посмотрели и удалили старые серии, то предотвратить повторную закачку старых серий можно, сняв галочки в соответсвующих местах при запуске нового торрента. По возможности, желательно не удалять старые серии как можно дольше чтобы релизёр не столько продолжал раздавать старые серии, а смог сконцентрироваться на новых.
Format : AVI
Format/Info : Audio Video Interleave
File size : 433 MiB
Duration : 42mn 59s
Overall bit rate : 1 408 Kbps
Writing application : VirtualDubModRus 1.5.10.2 (build 2542/release)
Writing library : VirtualDubMod build 2542/release
Video
ID : 0
Format : MPEG-4 Visual
Format profile : Advanced Simple@L5
Format settings, BVOP : Yes
Format settings, QPel : No
Format settings, GMC : No warppoints
Format settings, Matrix : Default (H.263)
Codec ID : XVID
Codec ID/Hint : XviD
Duration : 42mn 59s
Bit rate : 1 074 Kbps
Width : 624 pixels
Height : 352 pixels
Display aspect ratio : 16:9
Frame rate : 23.976 fps
Color space : YUV
Chroma subsampling : 4:2:0
Bit depth : 8 bits
Scan type : Progressive
Compression mode : Lossy
Bits/(Pixel*Frame) : 0.204
Stream size : 330 MiB (76%)
Writing library : XviD 65
Audio #1
ID : 1
Format : MPEG Audio
Format version : Version 1
Format profile : Layer 3
Mode : Joint stereo
Codec ID : 55
Codec ID/Hint : MP3
Duration : 42mn 59s
Bit rate mode : Constant
Bit rate : 160 Kbps
Channel(s) : 2 channels
Sampling rate : 48.0 KHz
Compression mode : Lossy
Stream size : 49.2 MiB (11%)
Alignment : Aligned on interleaves
Interleave, duration : 42 ms (1.00 video frame)
Interleave, preload duration : 504 ms
Audio #2
ID : 2
Format : MPEG Audio
Format version : Version 1
Format profile : Layer 3
Mode : Joint stereo
Mode extension : MS Stereo
Codec ID : 55
Codec ID/Hint : MP3
Duration : 42mn 59s
Bit rate mode : Constant
Bit rate : 160 Kbps
Channel(s) : 2 channels
Sampling rate : 48.0 KHz
Compression mode : Lossy
Stream size : 49.2 MiB (11%)
Alignment : Aligned on interleaves
Interleave, duration : 42 ms (1.00 video frame)
Interleave, preload duration : 504 ms
Writing library : LAME3.99r
Encoding settings : -m j -V 4 -q 2 -lowpass 17.5 -b 160

Обновлено!Финал сезона!



Скачать Полиция.Чикаго.Chicago.PD.(Полный.1-ый.сезон).(Джо.Чаппелль.Марк.Тинкер).[2014.боевик.драма.WEB-DLRip].[VO].(по.версии.Шадинского).+.Original.torrent без регистрации
Золото ЗОЛОТАЯ РАЗДАЧА! СКАЧАННОЕ НЕ ЗАСЧИТЫВАЕТСЯ! Золото
Дата: Зарегистрирован   [ Тип: внутренний ] Как тут cкачать?
MAGNET ссылка
MAGNET ссылка


Скачать .torrent

17 KB

Статус: проверено DHT
Скачан: торрент - 3394 раз, раздача полностью - 52 раз
Размер: 6,01 GB
Оценка:  5 (Голосов: 1)
Поблагодарили: 0
Поделиться ссылкой на эту раздачу с друзьями:
В контактеFacebookОдноклассникиTwitterLivejournalМой МирLiveinternet
 

 

leon030982

[] 

добавлена 3-я серия
 

leon030982

[] 

4-5-я серии az
 

leon030982

[] 

6-я серия az
 

leon030982

[] 

7-я серия az
 

leon030982

[] 

Раздача обновлена!
 

leon030982

[] 

9-я серия!
 

leon030982

[] 

10-я серия
 

leon030982

[] 

обновлено az
 

leon030982

[] 

12-я серия
 

leon030982

[] 

13-14-я серии az
 

leon030982

[] 

Обновлено!Финал сезона!
 
Показать сообщения:    


Вы не можете начинать темы
Вы не можете отвечать на сообщения
Вы не можете редактировать свои сообщения
Вы не можете удалять свои сообщения
Вы не можете голосовать в опросах
Вы не можете прикреплять файлы к сообщениям
Вы можете скачивать файлы