Loading...
Error

Скачать Полиция Чикаго / Chicago PD (Полный 1-ый сезон) (Джо Чаппелль / Joe Chappelle, Марк Тинкер) [2014, Драма, WEB-DL] [720p] [VO] (Шадинский) + [Original] + Eng Subs торрент без регистрации

 
Статистика раздачи
Размер:  21,72 GB   |    Скачан:  3399 раз
Сидов:  1  [  0 KB/s  ]  

Нравиться ли Вам озвучка Шадинского

1.Нравиться, смотрю Пожарных Чикаго   100%  100%  [ 2 ]
2.Довольно не плохо   0%  0%  [ 0 ]
3. В идеале знаю английский и смотрю в оригинале   0%  0%  [ 0 ]

Всего проголосовало : 2

 
Автор Сообщение

leon030982

[] 

Полиция Чикаго | Chicago PD


«DON'T **** WITH MY CITY.»


Год выпуска : 2014
Страна : США
Жанр : драма
Продолжительность : 00:45:00
Перевод : Профессиональный (одноголосый закадровый) Шадинский
Субтитры :English

Режиссёр : Джо Чаппелль / Joe Chappelle, Марк Тинкер

В ролях : Джейсон Бех, Джон Седа, София Буш, Элиас Котеас, Арчи Као, Джесси Ли Соффер, Патрик Флюгер, Ларойс Хоукинс, Марина Скверсьяти, Таня Рэймонд

Описание : В центре сюжета находятся работники полицейского департамента города Чикаго, в частности две группы полицейских, которые находятся на разных ступенях власти.
Сэмпл : http://multi-up.com/939732

Качество : WEB-DL 720p
Формат : MKV
Видео : AVC, 1280x720, 23.976 fps, ~4000 Kbps, 0.181 bit/pixel
Аудио Rus : AC3, 48 KHz, 6 ch, 384 Kbps
Аудио Eng : AC3, 48 KHz, 6 ch, 384 Kbps
Работа со звуком : 13napas
Общее
Уникальный идентификатор : 223891203420829312191083651343837779112 (0xA86FE0966CDC1D9BBEED5E932E0B54A8)
Полное имя : H:\Chicago.PD.S01.720p.WEB-DL.DD5.1.Rus.Eng\Chicago.PD.S01E01.720p.WEB-DL.DD5.1.Rus.Eng.mkv
Формат : Matroska
Версия формата : Version 4 / Version 2
Размер файла : 1,46 Гбайт
Продолжительность : 42 м.
Общий поток : 4868 Кбит/сек
Дата кодирования : UTC 2014-01-12 22:48:51
Программа кодирования : mkvmerge v6.3.0 ('You can't stop me!') built on Jun 28 2013 20:09:41
Библиотека кодирования : libebml v1.3.0 + libmatroska v1.4.0
Видео
Идентификатор : 1
Формат : AVC
Формат/Информация : Advanced Video Codec
Профиль формата : High@L3.1
Параметр CABAC формата : Нет
Параметр ReFrames формата : 2 кадра
Идентификатор кодека : V_MPEG4/ISO/AVC
Продолжительность : 42 м.
Битрейт : 4003 Кбит/сек
Ширина : 1280 пикселей
Высота : 720 пикселей
Соотношение сторон : 16:9
Режим частоты кадров : Постоянный
Частота кадров : 23,976 кадра/сек
Цветовое пространство : YUV
Субдискретизация насыщенности : 4:2:0
Битовая глубина : 8 бит
Тип развёртки : Прогрессивная
Бит/(Пиксели*Кадры) : 0.181
Размер потока : 1,20 Гбайт (82%)
Язык : English
Default : Да
Forced : Нет
Основные цвета : BT.709
Характеристики трансфера : BT.709
Коэффициенты матрицы : BT.709
Аудио #1
Идентификатор : 2
Формат : AC-3
Формат/Информация : Audio Coding 3
Расширение режима : CM (complete main)
Параметр Endianness формата : Big
Идентификатор кодека : A_AC3
Продолжительность : 42 м.
Вид битрейта : Постоянный
Битрейт : 384 Кбит/сек
Каналы : 6 каналов
Расположение каналов : Front: L C R, Side: L R, LFE
Частота : 48,0 КГц
Битовая глубина : 16 бит
Метод сжатия : С потерями
Размер потока : 118 Мбайт (8%)
Язык : Russian
Default : Да
Forced : Нет
Аудио #2
Идентификатор : 3
Формат : AC-3
Формат/Информация : Audio Coding 3
Расширение режима : CM (complete main)
Параметр Endianness формата : Big
Идентификатор кодека : A_AC3
Продолжительность : 42 м.
Вид битрейта : Постоянный
Битрейт : 384 Кбит/сек
Каналы : 6 каналов
Расположение каналов : Front: L C R, Side: L R, LFE
Частота : 48,0 КГц
Битовая глубина : 16 бит
Метод сжатия : С потерями
Размер потока : 118 Мбайт (8%)
Язык : English
Default : Нет
Forced : Нет
Текст
Идентификатор : 4
Формат : UTF-8
Идентификатор кодека : S_TEXT/UTF8
Идентификатор кодека/Информация : UTF-8 Plain Text
Язык : English
Default : Нет
Forced : Нет
Внимание! Раздача ведётся путём добавления новых серий; при каждом добавлении создаётся новый торрент. Чтобы начать докачку новой серии, пользователям необходимо сделать следующее:
(1) остановить скачивание,
(2) удалить старый торрент-файл у себя из клиента (старые серии удалять не надо),
(3) скачать новый торрент-файл из раздачи и запустить его у себя в клиенте вместо старого, при этом указать клиенту путь в старую папку куда и должно происходить скачивание новых серий.
Ваш клиент при этом должен произвести хеширование (проверку) старой папки (если не производит сам - помогите ему сделать это), и будет докачивать только те серии которых у вас ещё нет. Старые серии при этом не удаляются, а продолжают раздаваться!
Eсли вы уже посмотрели и удалили старые серии, то предотвратить повторную закачку старых серий можно, сняв галочки в соответсвующих местах при запуске нового торрента. По возможности, желательно не удалять старые серии как можно дольше чтобы релизёр не столько продолжал раздавать старые серии, а смог сконцентрироваться на новых.



Скачать Полиция.Чикаго.Chicago.PD.(Полный.1-ый.сезон).(Джо.Чаппелль.Joe.Chappelle.Марк.Тинкер).[2014.Драма.WEB-DL].[720p].[VO].(Шадинский).+.[Original].+.Eng.Subs.torrent без регистрации
Золото ЗОЛОТАЯ РАЗДАЧА! СКАЧАННОЕ НЕ ЗАСЧИТЫВАЕТСЯ! Золото
Дата: Зарегистрирован   [ Тип: внутренний ] Как тут cкачать?
MAGNET ссылка
MAGNET ссылка


Скачать .torrent

56 KB

Статус: проверено DHT
Скачан: торрент - 3399 раз, раздача полностью - 6 раз
Размер: 21,72 GB
Оценка:  - (Голосов: 0)
Поблагодарили: 3
Поделиться ссылкой на эту раздачу с друзьями:
В контактеFacebookОдноклассникиTwitterLivejournalМой МирLiveinternet
 

 

leon030982

[] 

2-я серия az
 

leon030982

[] 

обновлено
 

leon030982

[] 

релиз обновлен az
 

leon030982

[] 

Добавлена 6-я серия az
 

leon030982

[] 

7-я серия az
 

leon030982

[] 

8-я серия!
 

leon030982

[] 

Раздача обновлена
 

leon030982

[] 

Сезон завершен az
 
Показать сообщения:    


Вы не можете начинать темы
Вы не можете отвечать на сообщения
Вы не можете редактировать свои сообщения
Вы не можете удалять свои сообщения
Вы не можете голосовать в опросах
Вы не можете прикреплять файлы к сообщениям
Вы можете скачивать файлы