Loading...
Error

Скачать Пограничный горизонт / New Frontier (Джордж Шерман / George Sherman) [1939, вестерн, HDRip] [VO] (Культура) + Eng торрент без регистрации

 
Статистика раздачи
Размер:  747 MB   |    Скачан:  120 раз
Сидов:  1  [  0 KB/s  ]  
 
Автор Сообщение

leon030982

[] 

Пограничный горизонт / New Frontier


Год выпуска: 1939
Страна: США
Жанр: вестерн
Продолжительность: 0:55:26
Перевод: Профессиональный (одноголосый, закадровый) [ГТРК "Культура"]
Cубтитры: нет

Режиссер: Джордж Шерман / George Sherman

В ролях: Джон Уэйн, Рей Корриган, Дженнифер Джонс

Описание: После окончания Гражданской войны на неосвоенную западную территорию прибывают переселенцы и называют свое новое место жительства Долиной новой надежды. А спустя 50 лет им сообщают о решении Конгресса вновь переселить их, чтобы на месте долины создать водохранилище. Фермеры начинают борьбу за сохранение долины, и им активно помогает троица ковбоев.



Качество видео: HDRip
Формат видео: AVI
Видео кодек: XviD
Аудио кодек: AC-3
Видео: MPEG4, XviD, 640x480 (4/3), 23.976 fps, 1 645 Kbps (0.223 bit/pixel)
Аудио 1: AC-3, 48.0 KHz, 1 ch, 112 Kbps, CBR [русский]
Аудио 2: AC-3, 48.0 KHz, 1 ch, 112 Kbps, CBR [английский]
Общее
Полное имя : K:\Пограничный горизонт.avi
Формат : AVI
Формат/Информация : Audio Video Interleave
Размер файла : 747 Мбайт
Продолжительность : 55 м.
Общий поток : 1883 Кбит/сек
Название фильма : Пограничный горизонт / Frontier Horizon / New Frontier (1939)
Режиссёр : miha2154
Программа кодирования : VirtualDubMod 1.5.10.2 (build 2540/release)
Библиотека кодирования : VirtualDubMod build 2540/release
Правообладатель : специально для BitTorrent трекер RuTracker.org (ex torrents.ru)
Видео
Идентификатор : 0
Формат : MPEG-4 Visual
Профиль формата : Advanced Simple@L5
Параметр BVOP формата : 2
Параметр QPel формата : Нет
Параметр GMC формата : Без точки перехода
Параметр матрицы формата : Default (MPEG)
Идентификатор кодека : XVID
Идентификатор кодека/Подсказка : XviD
Продолжительность : 55 м.
Битрейт : 1645 Кбит/сек
Ширина : 640 пикселей
Высота : 480 пикселей
Соотношение сторон : 4:3
Частота кадров : 23,976 кадра/сек
Цветовое пространство : YUV
Субдискретизация насыщенности : 4:2:0
Битовая глубина : 8 бит
Тип развёртки : Прогрессивная
Метод сжатия : С потерями
Бит/(Пиксели*Кадры) : 0.223
Размер потока : 652 Мбайт (87%)
Библиотека кодирования : XviD 1.1.0 (UTC 2005-11-22)
Аудио #1
Идентификатор : 1
Формат : AC-3
Формат/Информация : Audio Coding 3
Расширение режима : CM (complete main)
Параметр Endianness формата : Big
Идентификатор кодека : 2000
Продолжительность : 55 м.
Вид битрейта : Постоянный
Битрейт : 112 Кбит/сек
Каналы : 1 канал
Расположение каналов : Front: C
Частота : 48,0 КГц
Битовая глубина : 16 бит
Метод сжатия : С потерями
Размер потока : 44,4 Мбайт (6%)
Выравнивание : Разделение по промежуткам
Продолжительность промежутка : 42 мс. (1,00 видеокадр)
Время предзагрузки промежутка : 500 мс.
Заголовок : Профессиональный (одноголосый, закадровый) Культура
Аудио #2
Идентификатор : 2
Формат : AC-3
Формат/Информация : Audio Coding 3
Расширение режима : CM (complete main)
Параметр Endianness формата : Big
Идентификатор кодека : 2000
Продолжительность : 55 м.
Вид битрейта : Постоянный
Битрейт : 112 Кбит/сек
Каналы : 1 канал
Расположение каналов : Front: C
Частота : 48,0 КГц
Битовая глубина : 16 бит
Метод сжатия : С потерями
Размер потока : 44,4 Мбайт (6%)
Выравнивание : Разделение по промежуткам
Продолжительность промежутка : 42 мс. (1,00 видеокадр)
Время предзагрузки промежутка : 500 мс.
Заголовок : Английский



Скачать Пограничный.горизонт.New.Frontier.(Джордж.Шерман.George.Sherman).[1939.вестерн.HDRip].[VO].(Культура).+.Eng.torrent без регистрации
Золото ЗОЛОТАЯ РАЗДАЧА! СКАЧАННОЕ НЕ ЗАСЧИТЫВАЕТСЯ! Золото
Дата: Зарегистрирован   [ Тип: внутренний ] Как тут cкачать?
MAGNET ссылка
MAGNET ссылка


Скачать .torrent

15 KB

Статус: проверено DHT
Скачан: торрент - 120 раз, раздача полностью - 3 раз
Размер: 747 MB
Оценка:  - (Голосов: 0)
Поблагодарили: 1
Поделиться ссылкой на эту раздачу с друзьями:
В контактеFacebookОдноклассникиTwitterLivejournalМой МирLiveinternet
 

 
Показать сообщения:    


Вы не можете начинать темы
Вы не можете отвечать на сообщения
Вы не можете редактировать свои сообщения
Вы не можете удалять свои сообщения
Вы не можете голосовать в опросах
Вы не можете прикреплять файлы к сообщениям
Вы можете скачивать файлы