Loading...
Error

Скачать Острые козырьки / Peaky Blinders (сезон 01) (Отто Баферст, Том Харпер) [2013, драма, криминал, BDRip] [720p] 2x[MVO (LostFilm, AlexFilm)]+2x[DVO (Кубик в Кубе, Ozz)] торрент без регистрации

 
Статистика раздачи
Размер:  31,68 GB   |    Скачан:  164 раза

Полного источника не было: 27 минут

 
Автор Сообщение

МихаНЕзатор

[] 

Информация о фильме
Название: Острые козырьки / Заточенные кепки
Оригинальное название: Peaky Blinders
Год выхода: 2013
Жанр: драма, криминал
Режиссер: Отто Баферст, Том Харпер

В ролях: Киллиан Мёрфи, Сэм Нил, Хелен МакКрори, Аннабелль Уоллис, Иддо Голдберг, Пол Андерсон, Софи Рандл, Джо Коул, Чарли Крид-Майлз, Сэмюэл Эдвард-Кук

О фильме: Британский сериал о криминальном мире Бирмингема 20-х годов прошлого века, в котором многолюдная семья Шелби стала одной из самых жестоких и влиятельных гангстерских банд послевоенного времени. Фирменным знаком группировки, промышлявшей грабежами и азартными играми, стали зашитые в козырьки лезвия.

Релиз от:
by markinscor

Страна: Великобритания
Продолжительность: 6 x ~ 00:56:00
Перевод:
Профессиональный (многоголосый, закадровый) - AlexFilm
Профессиональный (двухголосый, закадровый) - Кубик в Кубе
Профессиональный (многоголосый, закадровый) - LostFilm
Профессиональный (двухголосый, закадровый) - Ozz

Файл
Кодек: H.264
Качество: BDRip 720p
Видео: 1280x692 (1.85:1), 25.000 fps, ~10000 kbps, ~0.45 bit/pixel
Звук:
Аудио Rus: 48 kHz, 2 ch, 640 kbps |AlexFilm|
Аудио Rus: 48 kHz, 2 ch, 640 kbps |Кубик в Кубе|
Аудио Rus: 48 kHz, 2 ch, 640 kbps |LostFilm|
Аудио Rus: 48 kHz, 2 ch, 640 kbps |Ozz|
Аудио Eng: 48 kHz, 2 ch, 640 kbps |Original|
Субтитры: Русские форсированные, Русские (В.Мерзляков), Русские (О.Галайда), Английские

Голоса AlexFilm и Ozz-tv предоставил Vlad1k_H_, Кубик в Кубе - ЛП.
За создание forced субтитров и редакцию субтитров Ольги Галайды спасибо Kain_Rasiel

Общее
Формат : Matroska
Версия формата : Version 2
Размер файла : 5,26 Гбайт
Продолжительность : 56 м.
Общий поток : 13,2 Мбит/сек
Дата кодирования : UTC 2014-01-03 16:06:29
Программа кодирования : mkvmerge v5.8.0 ('No Sleep / Pillow') built on Sep 2 2012 15:37:04
Библиотека кодирования : libebml v1.2.3 + libmatroska v1.3.0

Видео
Идентификатор : 1
Формат : AVC
Формат/Информация : Advanced Video Codec
Профиль формата : High@L4.1
Параметр CABAC формата : Да
Параметр ReFrames формата : 9 кадров
Идентификатор кодека : V_MPEG4/ISO/AVC
Продолжительность : 56 м.
Битрейт : 10000 Кбит/сек
Ширина : 1280 пикселей
Высота : 692 пикселя
Соотношение сторон : 1,85:1
Режим частоты кадров : Постоянный
Частота кадров : 25,000 кадров/сек
Цветовое пространство : YUV
Субдискретизация насыщенности : 4:2:0
Битовая глубина : 8 бит
Тип развёртки : Прогрессивная
Бит/(Пиксели*Кадры) : 0.452
Размер потока : 3,88 Гбайт (74%)
Библиотека кодирования : x264 core 140 r2377kMod 1ca7bb9
Настройки программы : cabac=1 / ref=9 / deblock=1:-3:-3 / analyse=0x3:0x113 / me=umh / subme=11 / psy=1 / fade_compensate=0.00 / psy_rd=1.05:0.00 / mixed_ref=1 / me_range=32 / chroma_me=1 / trellis=2 / 8x8dct=1 / cqm=0 / deadzone=21,11 / fast_pskip=0 / chroma_qp_offset=-4 / threads=6 / lookahead_threads=1 / sliced_threads=0 / nr=0 / decimate=1 / interlaced=0 / bluray_compat=0 / constrained_intra=0 / fgo=0 / bframes=9 / b_pyramid=2 / b_adapt=2 / b_bias=0 / direct=3 / weightb=1 / open_gop=0 / weightp=2 / keyint=250 / keyint_min=25 / scenecut=40 / intra_refresh=0 / rc_lookahead=60 / rc=2pass / mbtree=0 / bitrate=10000 / ratetol=1.0 / qcomp=0.70 / qpmin=0 / qpmax=69 / qpstep=4 / cplxblur=20.0 / qblur=0.5 / vbv_maxrate=50000 / vbv_bufsize=62500 / nal_hrd=none / filler=0 / ip_ratio=1.40 / pb_ratio=1.30 / aq=3:0.70 / zones=60055,60136,b=1.3/60586,60685,b=1.3/60929,61030,b=1.3/84606,84662,b=1.5
Язык : English
Default : Да
Forced : Нет

Аудио #1
Идентификатор : 2
Формат : AC-3
Формат/Информация : Audio Coding 3
Расширение режима : CM (complete main)
Параметр Endianness формата : Big
Идентификатор кодека : A_AC3
Продолжительность : 56 м.
Вид битрейта : Постоянный
Битрейт : 640 Кбит/сек
Каналы : 2 канала
Расположение каналов : Front: L R
Частота : 48,0 КГц
Битовая глубина : 16 бит
Метод сжатия : С потерями
Размер потока : 261 Мбайт (5%)
Заголовок : MVO AlexFilm
Язык : Russian
Default : Да
Forced : Нет

Аудио #2
Идентификатор : 3
Формат : AC-3
Формат/Информация : Audio Coding 3
Расширение режима : CM (complete main)
Параметр Endianness формата : Big
Идентификатор кодека : A_AC3
Продолжительность : 56 м.
Вид битрейта : Постоянный
Битрейт : 640 Кбит/сек
Каналы : 2 канала
Расположение каналов : Front: L R
Частота : 48,0 КГц
Битовая глубина : 16 бит
Метод сжатия : С потерями
Размер потока : 261 Мбайт (5%)
Заголовок : DVO Кубик в Кубе
Язык : Russian
Default : Нет
Forced : Нет

Аудио #3
Идентификатор : 4
Формат : AC-3
Формат/Информация : Audio Coding 3
Расширение режима : CM (complete main)
Параметр Endianness формата : Big
Идентификатор кодека : A_AC3
Продолжительность : 56 м.
Вид битрейта : Постоянный
Битрейт : 640 Кбит/сек
Каналы : 2 канала
Расположение каналов : Front: L R
Частота : 48,0 КГц
Битовая глубина : 16 бит
Метод сжатия : С потерями
Размер потока : 261 Мбайт (5%)
Заголовок : MVO LostFilm
Язык : Russian
Default : Нет
Forced : Нет

Аудио #4
Идентификатор : 5
Формат : AC-3
Формат/Информация : Audio Coding 3
Расширение режима : CM (complete main)
Параметр Endianness формата : Big
Идентификатор кодека : A_AC3
Продолжительность : 56 м.
Вид битрейта : Постоянный
Битрейт : 640 Кбит/сек
Каналы : 2 канала
Расположение каналов : Front: L R
Частота : 48,0 КГц
Битовая глубина : 16 бит
Метод сжатия : С потерями
Размер потока : 261 Мбайт (5%)
Заголовок : DVO Ozz-tv
Язык : Russian
Default : Нет
Forced : Нет

Аудио #5
Идентификатор : 6
Формат : AC-3
Формат/Информация : Audio Coding 3
Расширение режима : CM (complete main)
Параметр Endianness формата : Big
Идентификатор кодека : A_AC3
Продолжительность : 56 м.
Вид битрейта : Постоянный
Битрейт : 640 Кбит/сек
Каналы : 2 канала
Расположение каналов : Front: L R
Частота : 48,0 КГц
Битовая глубина : 16 бит
Метод сжатия : С потерями
Размер потока : 261 Мбайт (5%)
Язык : English
Default : Нет
Forced : Нет

Текст #1
Идентификатор : 7
Формат : UTF-8
Идентификатор кодека : S_TEXT/UTF8
Идентификатор кодека/Информация : UTF-8 Plain Text
Заголовок : forced
Язык : Russian
Default : Да
Forced : Да

Текст #2
Идентификатор : 8
Формат : UTF-8
Идентификатор кодека : S_TEXT/UTF8
Идентификатор кодека/Информация : UTF-8 Plain Text
Заголовок : Василий Мерзляков
Язык : Russian
Default : Нет
Forced : Нет

Текст #3
Идентификатор : 9
Формат : UTF-8
Идентификатор кодека : S_TEXT/UTF8
Идентификатор кодека/Информация : UTF-8 Plain Text
Заголовок : Ольга Галайда
Язык : Russian
Default : Нет
Forced : Нет

Текст #4
Идентификатор : 10
Формат : UTF-8
Идентификатор кодека : S_TEXT/UTF8
Идентификатор кодека/Информация : UTF-8 Plain Text
Язык : English
Default : Нет
Forced : Нет

Меню
00:00:00.000 : en:00:00:00.000
00:09:46.600 : en:00:09:46.600
00:24:02.680 : en:00:24:02.680
00:34:29.920 : en:00:34:29.920
00:46:55.640 : en:00:46:55.640


Перевод: Ольга Галайда
Озвучка: Евгения Тихонова, Владимир Курдов, Михаил Суслов, Константин Погодаев


Перевод: Анастасия Кисиленко
Озвучка: Ольга Кравцова, Руслан Габидуллин


Озвучка: Студия "LostFilm"


Перевод: Василий Мерзляков
Озвучка: Ирина Воронова, Алексей Серегин



Скачать Острые.козырьки.Peaky.Blinders.(сезон.01).(Отто.Баферст.Том.Харпер).[2013.драма.криминал.BDRip].[720p].2x[MVO.(LostFilm.AlexFilm)]+2x[DVO.(Кубик.в.Кубе.Ozz)].torrent без регистрации
Золото ЗОЛОТАЯ РАЗДАЧА! СКАЧАННОЕ НЕ ЗАСЧИТЫВАЕТСЯ! Золото
Дата: Зарегистрирован   [ Тип: внутренний ] Как тут cкачать?
MAGNET ссылка
MAGNET ссылка


Скачать .torrent

159 KB

Статус: проверено DHT
Скачан: торрент - 164 раз, раздача полностью - 162 раз
Размер: 31,68 GB
Оценка:  5 (Голосов: 1)
Поблагодарили: 1
Поделиться ссылкой на эту раздачу с друзьями:
В контактеFacebookОдноклассникиTwitterLivejournalМой МирLiveinternet
 

 
Показать сообщения:    


Вы не можете начинать темы
Вы не можете отвечать на сообщения
Вы не можете редактировать свои сообщения
Вы не можете удалять свои сообщения
Вы не можете голосовать в опросах
Вы не можете прикреплять файлы к сообщениям
Вы можете скачивать файлы