Loading...
Error

Скачать Королёк - птичка певчая / Calikusu (01x01-24) (Чаган Ырмак, Доган Юмит Караджа) [2013, драма, мелодрама, история, WEB-DLRip] [Dub ("Русский дубляж")] торрент без регистрации

 
Статистика раздачи
Размер:  32,46 GB   |    Скачан:  240 раз
Сидов:  14  [  0 KB/s  ]   Личеров:  11  [  0 KB/s  ]  
 
Автор Сообщение

МихаНЕзатор

[] 

Информация о фильме
Название: Королёк птичка певчая
Оригинальное название: walikusu
Год выхода: 2013
Жанр: драма, мелодрама, история
Режиссер: Чаган Ырмак, Доган Юмит Караджа

В ролях: Фахрийе Эвджен, Бурак Озчивит, Pinar Caglar Genctürk, Deniz Celiloglu, Гюнес Хаят, Ebru Helvacioglu, Hülya Gülsen Irmak, Elif Iskender, Asli Içözü, Su Kutlu

О фильме: Главная героиня фильма, Фериде, живет с теткой и ее сыном Кямраном. Повзрослевшая Фериде неожиданно для себя влюбляется в кузена. Ее тайна становится известна жителям деревни. Правда, вместе с этим выясняется, что и Кямран тоже любит Фериде.



Страна: Турция
Студия: TIMS
Продолжительность: ~01:52:00 серия
Перевод: Профессиональный (полное дублирование) [Объединение "Русский дубляж" по заказу ТК "Домашний"]

Файл
Кодек: XviD / MP3
Качество: WEB-DLRip
Видео: MPEG4, XviD, 720x400 (16:9), 25.000 fps, 1444 Kbps (0.201 bit/pixel)
Звук: AC-3, 48.0 KHz, 2 ch, 192 Kbps, CBR

АНОНСЫ ПОПУЛЯРНЫХ РАЗДАЧ


24.06.2014 г. торент обновлён, добавлена 22-24 серия!
Общее
Полное имя : K:Calikusu.s01e01.WEB-DLRip.avi
Формат : AVI
Формат/Информация : Audio Video Interleave
Размер файла : 1,37 Гбайт
Продолжительность : 1 ч. 59 м.
Общий поток : 1646 Кбит/сек
Название фильма : Королек - птичка певчая. Сезон 1 / Calikusu. Sezon 1 (2013)
Программа кодирования : VirtualDubMod 1.5.10.2 (build 2540/release)
Библиотека кодирования : VirtualDubMod build 2540/release

Видео
Идентификатор : 0
Формат : MPEG-4 Visual
Профиль формата : Advanced Simple@L5
Параметр BVOP формата : 2
Параметр QPel формата : Нет
Параметр GMC формата : Без точки перехода
Параметр матрицы формата : Default (H.263)
Идентификатор кодека : XVID
Идентификатор кодека/Подсказка : XviD
Продолжительность : 1 ч. 59 м.
Битрейт : 1444 Кбит/сек
Ширина : 720 пикселей
Высота : 400 пикселей
Соотношение сторон : 16:9
Частота кадров : 25,000 кадров/сек
Цветовое пространство : YUV
Субдискретизация насыщенности : 4:2:0
Битовая глубина : 8 бит
Тип развёртки : Прогрессивная
Метод сжатия : С потерями
Бит/(Пиксели*Кадры) : 0.201
Размер потока : 1,21 Гбайт (88%)
Библиотека кодирования : XviD 1.2.1 (UTC 2008-12-04)

Аудио
Идентификатор : 1
Формат : AC-3
Формат/Информация : Audio Coding 3
Расширение режима : CM (complete main)
Параметр Endianness формата : Big
Идентификатор кодека : 2000
Продолжительность : 1 ч. 59 м.
Вид битрейта : Постоянный
Битрейт : 192 Кбит/сек
Каналы : 2 канала
Расположение каналов : Front: L R
Частота : 48,0 КГц
Битовая глубина : 16 бит
Метод сжатия : С потерями
Размер потока : 164 Мбайт (12%)
Выравнивание : Разделение по промежуткам
Продолжительность промежутка : 40 мс. (1,00 видеокадр)
Время предзагрузки промежутка : 500 мс.
Заголовок : Профессиональный (полное дублирование) Домашний
Раздача ведётся путём добавления новых серий; при каждом добавлении создаётся новый торрент. Чтобы начать докачку новой серии, пользователям необходимо сделать следующее:
(1) остановить скачивание,
(2) удалить старый торрент у себя из клиента (старые серии удалять не надо),
(3) скачать новый торрент и запустить его у себя в клиенте вместо старого, при этом указать клиенту путь в старую папку куда и должно происходить скачивание новых серий.

Ваш клиент при этом должен произвести хеширование (проверку) старой папки (если не производит сам - помогите ему сделать это), и будет докачивать только те серии которых у вас ещё нет. Старые серии при этом не удаляются, а продолжают раздаваться!

Eсли вы уже удалили старые серии, то предотвратить повторную закачку старых серий можно, отжав галочку в соответствующих местах при запуске нового торрента. По возможности, желательно не удалять старые серии как можно дольше чтобы релизёр не столько продолжал раздавать старые серии, а смог сконцентрироваться на новых.



Скачать Королёк.-.птичка.певчая.Calikusu.(01x01-24).(Чаган.Ырмак.Доган.Юмит.Караджа).[2013.драма.мелодрама.история.WEB-DLRip].[Dub.("Русский.дубляж")].torrent без регистрации
Золото ЗОЛОТАЯ РАЗДАЧА! СКАЧАННОЕ НЕ ЗАСЧИТЫВАЕТСЯ! Золото
Дата: Зарегистрирован   [ Тип: внешний ] Как тут cкачать?
MAGNET ссылка
MAGNET ссылка


Скачать .torrent

166 KB

Статус: проверено DHT
Скачан: торрент - 240 раз, раздача полностью - 437 раз
Размер: 32,46 GB
Оценка:  - (Голосов: 0)
Поблагодарили: 1
Поделиться ссылкой на эту раздачу с друзьями:
В контактеFacebookОдноклассникиTwitterLivejournalМой МирLiveinternet
 

 

МихаНЕзатор

[] 

Раздача обновлена
 
Показать сообщения:    


Вы не можете начинать темы
Вы не можете отвечать на сообщения
Вы не можете редактировать свои сообщения
Вы не можете удалять свои сообщения
Вы не можете голосовать в опросах
Вы не можете прикреплять файлы к сообщениям
Вы можете скачивать файлы