Loading...
Error

Скачать Компаньоны / Franklin & Bash (Полный 3-ий сезон) (Джейсон Энслер, Стив Робин) [2013, комедия, HDTVRip] [720p] [Original] + [Rus Subs] (Notabenoid) торрент без регистрации

 
Статистика раздачи
Размер:  11,56 GB   |    Скачан:  331 раз
Сидов:  1  [  0 KB/s  ]  
 
Автор Сообщение

leon030982

[] 

Франклин и Бэш / Компаньоны / Franklin & Bash



Год выпуска: 2013
Страна: США | TNT
Жанр: драма, комедия
Продолжительность: ~00:42:00
Перевод: Субтитры
Русские субтитры: есть
Субтитры: Русские (Notabenoid)

Режиссёр: Джейсон Энслер, Эндрю Флеминг, Стив Робин

В ролях: Марк-Пол Госселаар, Брекин Мейер, Рид Даймонд, Дэна Дэвис, Кумэйл Нанджиани, Малкольм МакДауэлл, Гарсель Бове, Стефани Карпентьери, Клэр Коффи, Кристина Валенсьяга и др.

Описание: Двое молодых, уличных адвоката, после выигрыша крупного дела над легендарной юридической фирмой были приняты на работу её основателем, однако из-за его неэтичного поведения адвокаты постоянно оказываются в неприятностях.


Качество: HDTVRip 720p
Формат: MKV
Видео кодек: H.264
Аудио кодек: AC3
Видео: AVC, 1280x720 (16:9), 23,976 fps, 3300 Кбит/с, 0.150 bit/pixel
Аудио: 48 kHz, AC3 Dolby Digital, 6 ch, ~448 kbps
01. Coffee and Cream
02. Dead and Alive
03. Good Lovin'
04. Captain Johnny
05. By The Numbers
06. Freck
07. Control
08. Out of the Blue
09. Shoot to Thrill
10. Gone In A Flash


Общее
Формат : Matroska
Версия формата : Version 4 / Version 2
Размер файла : 2,24 Гбайт
Продолжительность : 1 ч. 23 м.
Общий поток : 3836 Кбит/сек
Дата кодирования : UTC 2013-06-20 03:07:43
Программа кодирования : mkvmerge v6.0.0 ('Coming Up For Air') built on Jan 20 2013 10:28:01
Библиотека кодирования : libebml v1.3.0 + libmatroska v1.4.0
Видео
Идентификатор : 1
Формат : AVC
Формат/Информация : Advanced Video Codec
Профиль формата : High@L4.1
Параметр CABAC формата : Да
Параметр ReFrames формата : 5 кадров
Идентификатор кодека : V_MPEG4/ISO/AVC
Продолжительность : 1 ч. 23 м.
Битрейт : 3312 Кбит/сек
Ширина : 1280 пикселей
Высота : 720 пикселей
Соотношение сторон : 16:9
Режим частоты кадров : Постоянный
Частота кадров : 23,976 кадра/сек
Цветовое пространство : YUV
Субдискретизация насыщенности : 4:2:0
Битовая глубина : 8 бит
Тип развёртки : Прогрессивная
Бит/(Пиксели*Кадры) : 0.150
Размер потока : 1,94 Гбайт (86%)
Библиотека кодирования : x264 core 133 r2334 a3ac64b
Настройки программы : cabac=1 / ref=5 / deblock=1:0:0 / analyse=0x3:0x113 / me=umh / subme=8 / psy=1 / psy_rd=1.00:0.00 / mixed_ref=1 / me_range=16 / chroma_me=1 / trellis=1 / 8x8dct=1 / cqm=0 / deadzone=21,11 / fast_pskip=1 / chroma_qp_offset=-2 / threads=18 / lookahead_threads=3 / sliced_threads=0 / nr=0 / decimate=1 / interlaced=0 / bluray_compat=0 / constrained_intra=0 / bframes=3 / b_pyramid=2 / b_adapt=2 / b_bias=0 / direct=3 / weightb=1 / open_gop=0 / weightp=2 / keyint=250 / keyint_min=23 / scenecut=40 / intra_refresh=0 / rc_lookahead=50 / rc=crf / mbtree=1 / crf=18.0 / qcomp=0.60 / qpmin=0 / qpmax=69 / qpstep=4 / ip_ratio=1.40 / aq=1:1.00
Язык : English
Default : Да
Forced : Нет
Коэффициенты матрицы : BT.709
Аудио
Идентификатор : 2
Формат : AC-3
Формат/Информация : Audio Coding 3
Расширение режима : CM (complete main)
Параметр Endianness формата : Big
Идентификатор кодека : A_AC3
Продолжительность : 1 ч. 23 м.
Вид битрейта : Постоянный
Битрейт : 448 Кбит/сек
Каналы : 6 каналов
Расположение каналов : Front: L C R, Side: L R, LFE
Частота : 48,0 КГц
Битовая глубина : 16 бит
Метод сжатия : С потерями
Размер потока : 268 Мбайт (12%)
Default : Да
Forced : Нет

[align=center]




Скачать Компаньоны.Franklin.&.Bash.(Полный.3-ий.сезон).(Джейсон.Энслер.Стив.Робин).[2013.комедия.HDTVRip].[720p].[Original].+.[Rus.Subs].(Notabenoid).torrent без регистрации
Золото ЗОЛОТАЯ РАЗДАЧА! СКАЧАННОЕ НЕ ЗАСЧИТЫВАЕТСЯ! Золото
Дата: Зарегистрирован   [ Тип: внутренний ] Как тут cкачать?
MAGNET ссылка
MAGNET ссылка


Скачать .torrent

31 KB

Статус: проверено DHT
Скачан: торрент - 331 раз, раздача полностью - 1 раз
Размер: 11,56 GB
Оценка:  - (Голосов: 0)
Поблагодарили: 1
Поделиться ссылкой на эту раздачу с друзьями:
В контактеFacebookОдноклассникиTwitterLivejournalМой МирLiveinternet
 

 
Показать сообщения:    


Вы не можете начинать темы
Вы не можете отвечать на сообщения
Вы не можете редактировать свои сообщения
Вы не можете удалять свои сообщения
Вы не можете голосовать в опросах
Вы не можете прикреплять файлы к сообщениям
Вы можете скачивать файлы