Loading...
Error

Скачать Милые обманщицы / Pretty Little Liars (Сезон 2) (1-21 из 25) (Норман Бакли, Рон Лагомарсино) [2011, драма, триллер, WEB-DLRip] [Dub (MTV)] + [ENG] торрент без регистрации

 
Статистика раздачи
Размер:  10,25 GB   |    Скачан:  153 раза
Сидов:  1  [  0 KB/s  ]  
 
Автор Сообщение

deadmauVlad

[] 

Милые обманщицы / Pretty Little Liars

Год выпуска: 2011-2012
Страна: США
Жанр: драма, триллер
Продолжительность: ~ 42 минуты
Перевод: Профессиональный (дублированный) - MTV
Субтитры: Нет
Режиссёр: Бхарат Наллури
В ролях: Джанель Пэрриш, Стивен Крюгер, Тройэн Эвери Беллисарио, Джулиан Моррис, Майкл Бин, Эшли Бенсон, Эмбер Борицки, Холли Мари Комбс, Торри ДеВито, Люси Хейл, Йен Хардинг, Брюс Джонсон и др.

Описание: «Милые обманщицы» (оригинальное название — Pretty Little Liars) — сериал о Спенсер, Ханне, Арии, Эмили и Элисон — неразлучных подружках, которые всегда делили на пятерых все свои самые сокровенные тайны... Пока однажды Элисон бесследно не исчезла куда-то прямо посреди вечеринки. На этом и закончилась дружба Спенсер, Эмили, Арии и Ханны. Подруги больше не хотят напоминать друг другу об Элисон...

Но в один прекрасный день они все начали получают странные сообщения. Таинственный недоброжелатель по имени «Э» угрожает раскрыть все их секреты, включая те, о которых знала только Элисон… и те, о которых не мог знать вообще никто!

Он знает, что Ханна раньше страдала булимией, а сейчас имеет проблемы с полицией. Что Ария встречается со своим учителем. И что Эмили – лесбиянка.

Девушки уверены, что Э – это пропавшая Элисон… И вдруг полиция находит ее тело. Спустя целый год после исчезновения!

Кто же тогда шлет Спенсер, Ханне, Арии и Эмили анонимные угрозы? А может быть, найденное тело принадлежало вовсе не Элисон?..

Semle
Качество: WEB-DLRip
Формат: AVI
Видео кодек: XviD
Аудио кодек: MP3
Видео: 720x400 (16:9), 23.976 fps, ~1350 kbps, ~0.195 bit/pixel

Аудио Rus: 48 kHz, 2 ch, ~128 kbps |MTV|
Аудио Eng: 48 kHz, 2 ch, ~128 kbps |Original|

Озвучка: MTV
Подготовка видео: vadimdexter
Монтаж и работа со звуком: zhbanochek, vadimdexter

Код:

Общее
Формат : AVI
Формат/Информация : Audio Video Interleave
Размер файла : 500 Мбайт
Продолжительность : 43 м.
Общий поток : 1616 Кбит/сек
Программа кодирования : VirtualDubMod 1.5.10.2 (build 2542/release)
Библиотека кодирования : VirtualDubMod build 2542/release

Видео
Идентификатор : 0
Формат : MPEG-4 Visual
Профиль формата : Advanced Simple@L5
Параметр BVOP формата : 1
Параметр QPel формата : Нет
Параметр GMC формата : Без точки перехода
Параметр матрицы формата : Default (MPEG)
Идентификатор кодека : XVID
Идентификатор кодека/Подсказка : XviD
Продолжительность : 43 м.
Битрейт : 1346 Кбит/сек
Ширина : 720 пикселей
Высота : 400 пикселей
Соотношение сторон : 16:9
Частота кадров : 23,976 кадра/сек
Цветовое пространство : YUV
Субдискретизация насыщенности : 4:2:0
Битовая глубина : 8 бит
Тип развёртки : Прогрессивная
Метод сжатия : С потерями
Бит/(Пиксели*Кадры) : 0.195
Размер потока : 416 Мбайт (83%)
Библиотека кодирования : XviD 64

Аудио #1
Идентификатор : 1
Формат : MPEG Audio
Версия формата : Version 1
Профиль формата : Layer 3
Режим : Joint stereo
Расширение режима : MS Stereo
Идентификатор кодека : 55
Идентификатор кодека/Подсказка : MP3
Продолжительность : 43 м.
Вид битрейта : Постоянный
Битрейт : 128 Кбит/сек
Каналы : 2 канала
Частота : 48,0 КГц
Метод сжатия : С потерями
Размер потока : 39,6 Мбайт (8%)
Выравнивание : Соединение по промежуткам
Продолжительность промежутка : 42 мс. (1,00 видеокадр)
Время предзагрузки промежутка : 504 мс.

Аудио #2
Идентификатор : 2
Формат : MPEG Audio
Версия формата : Version 1
Профиль формата : Layer 3
Режим : Joint stereo
Расширение режима : MS Stereo
Идентификатор кодека : 55
Идентификатор кодека/Подсказка : MP3
Продолжительность : 43 м.
Вид битрейта : Постоянный
Битрейт : 128 Кбит/сек
Каналы : 2 канала
Частота : 48,0 КГц
Метод сжатия : С потерями
Размер потока : 39,6 Мбайт (8%)
Выравнивание : Соединение по промежуткам
Продолжительность промежутка : 42 мс. (1,00 видеокадр)
Время предзагрузки промежутка : 504 мс.
Все раздачи сериала



Скачать Милые.обманщицы.Pretty.Little.Liars.(Сезон.2).(1-21.из.25).(Норман.Бакли.Рон.Лагомарсино).[2011.драма.триллер.WEB-DLRip].[Dub.(MTV)].+.[ENG].torrent без регистрации
Золото ЗОЛОТАЯ РАЗДАЧА! СКАЧАННОЕ НЕ ЗАСЧИТЫВАЕТСЯ! Золото
Дата: Зарегистрирован   [ Тип: внутренний ] Как тут cкачать?
MAGNET ссылка
MAGNET ссылка


Скачать .torrent

54 KB

Статус: проверено DHT
Скачан: торрент - 153 раз, раздача полностью - 18 раз
Размер: 10,25 GB
Оценка:  - (Голосов: 0)
Поблагодарили: 0
Поделиться ссылкой на эту раздачу с друзьями:
В контактеFacebookОдноклассникиTwitterLivejournalМой МирLiveinternet
 

 
Показать сообщения:    


Вы не можете начинать темы
Вы не можете отвечать на сообщения
Вы не можете редактировать свои сообщения
Вы не можете удалять свои сообщения
Вы не можете голосовать в опросах
Вы не можете прикреплять файлы к сообщениям
Вы можете скачивать файлы