Loading...
Error

Скачать Милые обманщицы / Pretty Little Liars (Сезон: 2) (1-21 из 25) (Норман Бакли, Рон Лагомарсино) [2011, драма, триллер, WEB-DL 720p] DUB (MTV) торрент без регистрации

 
Статистика раздачи
Размер:  29,94 GB   |    Скачан:  705 раз
Сидов:  1  [  0 KB/s  ]  
 
Автор Сообщение

deadmauVlad

[] 

Милые обманщицы / Pretty Little Liars

Год выпуска: 2011-2012
Страна: США
Жанр: драма, триллер
Продолжительность: ~ 42 минуты
Перевод: Профессиональный (дублированный) - MTV
Субтитры: Нет
Режиссёр: Бхарат Наллури
В ролях: Джанель Пэрриш, Стивен Крюгер, Тройэн Эвери Беллисарио, Джулиан Моррис, Майкл Бин, Эшли Бенсон, Эмбер Борицки, Холли Мари Комбс, Торри ДеВито, Люси Хейл, Йен Хардинг, Брюс Джонсон и др.

Описание: «Милые обманщицы» (оригинальное название — Pretty Little Liars) — сериал о Спенсер, Ханне, Арии, Эмили и Элисон — неразлучных подружках, которые всегда делили на пятерых все свои самые сокровенные тайны... Пока однажды Элисон бесследно не исчезла куда-то прямо посреди вечеринки. На этом и закончилась дружба Спенсер, Эмили, Арии и Ханны. Подруги больше не хотят напоминать друг другу об Элисон...

Но в один прекрасный день они все начали получают странные сообщения. Таинственный недоброжелатель по имени «Э» угрожает раскрыть все их секреты, включая те, о которых знала только Элисон… и те, о которых не мог знать вообще никто!

Он знает, что Ханна раньше страдала булимией, а сейчас имеет проблемы с полицией. Что Ария встречается со своим учителем. И что Эмили – лесбиянка.

Девушки уверены, что Э – это пропавшая Элисон… И вдруг полиция находит ее тело. Спустя целый год после исчезновения!

Кто же тогда шлет Спенсер, Ханне, Арии и Эмили анонимные угрозы? А может быть, найденное тело принадлежало вовсе не Элисон?..

Semle
Качество: WEB-DL 720p
Формат: MKV
Видео кодек: H.264
Аудио кодек: AC3
Видео: 1280×720 (1.78:1), 23.976 fps, 3854 kbps avg, 0.18 bit/pixel
Аудио 1: 48 kHz, Dolby Digital 2.0 @ 192 kbps AC-3 [MTV]
Аудио 2: 48 kHz, Dolby Digital 5.1 @ 384 kbps AC-3 [Original][/b][/font]

[i]Озвучка: MTV
Подготовка видео: vadimdexter
Монтаж и работа со звуком: zhbanochek, vadimdexter

Код:

General
Unique ID : 235102427021387203169072165036005448210 (0xB0DF1496655E8D68AF7E39D6FD32DA12)
Format : Matroska
Format version : Version 4 / Version 2
File size : 1.42 GiB
Duration : 43mn 14s
Overall bit rate : 4 693 Kbps
Encoded date : UTC 2013-05-11 16:58:02
Writing application : mkvmerge v6.2.0 ('Promised Land') built on Apr 28 2013 12:22:01
Writing library : libebml v1.3.0 + libmatroska v1.4.0

Video
ID : 1
Format : AVC
Format/Info : Advanced Video Codec
Format profile : High@L3.1
Format settings, CABAC : No
Format settings, ReFrames : 2 frames
Codec ID : V_MPEG4/ISO/AVC
Duration : 43mn 14s
Bit rate : 4 023 Kbps
Width : 1 280 pixels
Height : 720 pixels
Display aspect ratio : 16:9
Frame rate mode : Constant
Frame rate : 23.976 fps
Color space : YUV
Chroma subsampling : 4:2:0
Bit depth : 8 bits
Scan type : Progressive
Bits/(Pixel*Frame) : 0.182
Stream size : 1.22 GiB (86%)
Language : English
Default : No
Forced : No
Color primaries : BT.709
Transfer characteristics : BT.709
Matrix coefficients : BT.709

Audio #1
ID : 2
Format : AC-3
Format/Info : Audio Coding 3
Mode extension : CM (complete main)
Format settings, Endianness : Big
Codec ID : A_AC3
Duration : 43mn 14s
Bit rate mode : Constant
Bit rate : 192 Kbps
Channel(s) : 2 channels
Channel positions : Front: L R
Sampling rate : 48.0 KHz
Bit depth : 16 bits
Compression mode : Lossy
Stream size : 59.4 MiB (4%)
Language : Russian
Default : Yes
Forced : No

Audio #2
ID : 3
Format : AC-3
Format/Info : Audio Coding 3
Mode extension : CM (complete main)
Format settings, Endianness : Big
Codec ID : A_AC3
Duration : 43mn 14s
Bit rate mode : Constant
Bit rate : 384 Kbps
Channel(s) : 6 channels
Channel positions : Front: L C R, Side: L R, LFE
Sampling rate : 48.0 KHz
Bit depth : 16 bits
Compression mode : Lossy
Stream size : 119 MiB (8%)
Language : English
Default : No
Forced : No
Все раздачи сериала



Скачать Милые.обманщицы.Pretty.Little.Liars.(Сезон.2).(1-21.из.25).(Норман.Бакли.Рон.Лагомарсино).[2011.драма.триллер.WEB-DL.720p].DUB.(MTV).torrent без регистрации
Золото ЗОЛОТАЯ РАЗДАЧА! СКАЧАННОЕ НЕ ЗАСЧИТЫВАЕТСЯ! Золото
Дата: Зарегистрирован   [ Тип: внутренний ] Как тут cкачать?
MAGNET ссылка
MAGNET ссылка


Скачать .torrent

78 KB

Статус: проверено DHT
Скачан: торрент - 705 раз, раздача полностью - 78 раз
Размер: 29,94 GB
Оценка:  - (Голосов: 0)
Поблагодарили: 1
Поделиться ссылкой на эту раздачу с друзьями:
В контактеFacebookОдноклассникиTwitterLivejournalМой МирLiveinternet
 

 
Показать сообщения:    


Вы не можете начинать темы
Вы не можете отвечать на сообщения
Вы не можете редактировать свои сообщения
Вы не можете удалять свои сообщения
Вы не можете голосовать в опросах
Вы не можете прикреплять файлы к сообщениям
Вы можете скачивать файлы