Loading...
Error

Скачать Милые обманщицы / Pretty Little Liars (Сезон: 1) (Серии: 1-22 из 22) (Норман Бакли, Рон Лагомарсино) [2010, драма, триллер, WEB-DL 720p] Dub (MTV) торрент без регистрации

 
Статистика раздачи
Размер:  31,53 GB   |    Скачан:  180 раз
Сидов:  1  [  0 KB/s  ]  
 
Автор Сообщение

deadmauVlad

[] 

Милые обманщицы / Pretty Little Liars

Год выпуска: 2011-2012
Страна: США
Жанр: драма, триллер
Продолжительность: ~ 42 минуты
Перевод: Профессиональный (дублированный) - MTV
Субтитры: Нет
Режиссёр: Бхарат Наллури
В ролях: Джанель Пэрриш, Стивен Крюгер, Тройэн Эвери Беллисарио, Джулиан Моррис, Майкл Бин, Эшли Бенсон, Эмбер Борицки, Холли Мари Комбс, Торри ДеВито, Люси Хейл, Йен Хардинг, Брюс Джонсон и др.

Описание: «Милые обманщицы» (оригинальное название — Pretty Little Liars) — сериал о Спенсер, Ханне, Арии, Эмили и Элисон — неразлучных подружках, которые всегда делили на пятерых все свои самые сокровенные тайны... Пока однажды Элисон бесследно не исчезла куда-то прямо посреди вечеринки. На этом и закончилась дружба Спенсер, Эмили, Арии и Ханны. Подруги больше не хотят напоминать друг другу об Элисон...

Но в один прекрасный день они все начали получают странные сообщения. Таинственный недоброжелатель по имени «Э» угрожает раскрыть все их секреты, включая те, о которых знала только Элисон… и те, о которых не мог знать вообще никто!

Он знает, что Ханна раньше страдала булимией, а сейчас имеет проблемы с полицией. Что Ария встречается со своим учителем. И что Эмили – лесбиянка.

Девушки уверены, что Э – это пропавшая Элисон… И вдруг полиция находит ее тело. Спустя целый год после исчезновения!

Кто же тогда шлет Спенсер, Ханне, Арии и Эмили анонимные угрозы? А может быть, найденное тело принадлежало вовсе не Элисон?..

Semle
Качество: WEB-DL 720p
Формат: MKV
Видео кодек: H.264
Аудио кодек: AC3
Видео: 1280×720 (1.78:1), 23.976 fps, 3854 kbps avg, 0.18 bit/pixel
Аудио 1: 48 kHz, Dolby Digital 2.0 @ 192 kbps AC-3 [MTV]
Аудио 2: 48 kHz, Dolby Digital 5.1 @ 384 kbps AC-3 [Original][/b][/font]

[i]Озвучка: MTV
Подготовка видео: vadimdexter
Монтаж и работа со звуком: zhbanochek, vadimdexter

Код:

Общее
Уникальный идентификатор : 177326865004924871579926620778029381580 (0x8567E973F6F1CD589D8FF12F317BF7CC)
Формат : Matroska
Версия формата : Version 2
Размер файла : 1,51 Гбайт
Продолжительность : 44 м.
Общий поток : 4838 Кбит/сек
Дата кодирования : UTC 2012-10-30 11:02:56
Программа кодирования : mkvmerge v5.8.0 ('No Sleep / Pillow') built on Sep 2 2012 15:37:04
Библиотека кодирования : libebml v1.2.3 + libmatroska v1.3.0

Видео
Идентификатор : 1
Формат : AVC
Формат/Информация : Advanced Video Codec
Профиль формата : High@L3.1
Параметр CABAC формата : Нет
Параметр ReFrames формата : 2 кадра
Идентификатор кодека : V_MPEG4/ISO/AVC
Продолжительность : 44 м.
Битрейт : 4166 Кбит/сек
Ширина : 1280 пикселей
Высота : 720 пикселей
Соотношение сторон : 16:9
Режим частоты кадров : Постоянный
Частота кадров : 23,976 кадра/сек
Цветовое пространство : YUV
Субдискретизация насыщенности : 4:2:0
Битовая глубина : 8 бит
Тип развёртки : Прогрессивная
Бит/(Пиксели*Кадры) : 0.189
Размер потока : 1,30 Гбайт (86%)
Язык : English
Default : Нет
Forced : Нет
Основные цвета : BT.709
Характеристики трансфера : BT.709
Коэффициенты матрицы : BT.709

Аудио #1
Идентификатор : 2
Формат : AC-3
Формат/Информация : Audio Coding 3
Расширение режима : CM (complete main)
Параметр Endianness формата : Big
Идентификатор кодека : A_AC3
Продолжительность : 44 м.
Вид битрейта : Постоянный
Битрейт : 192 Кбит/сек
Каналы : 2 канала
Расположение каналов : Front: L R
Частота : 48,0 КГц
Битовая глубина : 16 бит
Метод сжатия : С потерями
Размер потока : 61,3 Мбайт (4%)
Язык : Russian
Default : Да
Forced : Нет

Аудио #2
Идентификатор : 3
Формат : AC-3
Формат/Информация : Audio Coding 3
Расширение режима : CM (complete main)
Параметр Endianness формата : Big
Идентификатор кодека : A_AC3
Продолжительность : 44 м.
Вид битрейта : Постоянный
Битрейт : 384 Кбит/сек
Каналы : 6 каналов
Расположение каналов : Front: L C R, Side: L R, LFE
Частота : 48,0 КГц
Битовая глубина : 16 бит
Метод сжатия : С потерями
Размер потока : 123 Мбайт (8%)
Язык : English
Default : Нет
Forced : Нет
Все раздачи сериала



Скачать Милые.обманщицы.Pretty.Little.Liars.(Сезон.1).(Серии.1-22.из.22).(Норман.Бакли.Рон.Лагомарсино).[2010.драма.триллер.WEB-DL.720p].Dub.(MTV).torrent без регистрации
Золото ЗОЛОТАЯ РАЗДАЧА! СКАЧАННОЕ НЕ ЗАСЧИТЫВАЕТСЯ! Золото
Дата: Зарегистрирован   [ Тип: внутренний ] Как тут cкачать?
MAGNET ссылка
MAGNET ссылка


Скачать .torrent

82 KB

Статус: проверено DHT
Скачан: торрент - 180 раз, раздача полностью - 59 раз
Размер: 31,53 GB
Оценка:  - (Голосов: 0)
Поблагодарили: 2
Поделиться ссылкой на эту раздачу с друзьями:
В контактеFacebookОдноклассникиTwitterLivejournalМой МирLiveinternet
 

 
Показать сообщения:    


Вы не можете начинать темы
Вы не можете отвечать на сообщения
Вы не можете редактировать свои сообщения
Вы не можете удалять свои сообщения
Вы не можете голосовать в опросах
Вы не можете прикреплять файлы к сообщениям
Вы можете скачивать файлы