Loading...
Error

Скачать Воин-призрак / Ghost Warrior (Дж. Ларри Кэрролл) [1985, фантастика, боевик, HDTVRip] [MVO]+[DVO]+[Оригинал] торрент без регистрации

 
Статистика раздачи
Размер:  1,39 GB   |    Скачан:  104 раза
Сидов:  1  [  0 KB/s  ]  
 
Автор Сообщение

Marsianka

[] 

Информация о фильме
Название: Воин-призрак
Оригинальное название: Ghost Warrior
Год выхода: 1985
Жанр: фантастика, боевик
Режиссер: Дж. Ларри Кэрролл
В ролях: Хироши Фуджиока, Джон Кэлвин, Джанет Джулиан, Чарльз Лампкин, Фрэнк Шуллер, Билл Мори, Энди Вуд, Роберт Кино, Джоан Фоли, Питер Ляпис

О фильме:
1552 год. На глазах у самурая Йоши убивают любимую, а его самого сбрасывают в ледяное озеро. В наши дни сохранившееся во льду тело Йоши доставляют в США в секретную лабораторию, где древнего воина возвращают к жизни. Один из сотрудников лаборатории попытался стащить самурайский меч, за что и поплатился жизнью. Встревоженный самурай сбегает из больницы на свободу, где на улицах современного Лос-Анжелеса его окружает совершенно чужой и непонятный мир. Однако, когда он становится свидетелем нападения на беззащитного прохожего, Йоши спасает жертву грабежа. Предводитель банды выслеживает самурая и приводит с собой подмогу. Йоши и на этот раз расправляется с подонками. Но затем охоту на него начинает и полиция, разыскивающая древнего воина из лаборатории. Через четыре столетия история повторяется самурай вновь оказывается один против всех.



Страна: США
Студия: Albert Band International Productions Inc., Empire Pictures, Harkham Productions
Продолжительность: 01:17:39
Перевод: Профессиональный многоголосый (ТВ3) / Профессиональный двухголосый (НТВ+)

Файл
Кодек: XviD
Качество: HDTVRip
Видео: 1960 Кбит/с, 720x400, 25.000 кадр/с
Аудио #1: Русский (АС3, 2 ch, 192 Кбит/с) / Профессиональный многоголосый (ТВ3)
Аудио #2: Русский (АС3, 2 ch, 192 Кбит/с) / Профессиональный двухголосый (НТВ+)
Аудио #3: Английский (АС3, 2 ch, 192 Кбит/с)
Семпл
Общее
Полное имя : Voin.prizrak.1985.HDTVRip.MediaClub.avi
Формат : AVI
Формат/Информация : Audio Video Interleave
Размер файла : 1,39 Гбайт
Продолжительность : 1 ч. 17 м.
Общий поток : 2555 Кбит/сек
Название фильма : MediaClub
Программа кодирования : VirtualDubMod 1.5.10.2 (build 2540/release)
Библиотека кодирования : VirtualDubMod build 2540/release

Видео
Идентификатор : 0
Формат : MPEG-4 Visual
Профиль формата : Advanced Simple@L5
Параметр BVOP формата : 2
Параметр QPel формата : Нет
Параметр GMC формата : Без точки перехода
Параметр матрицы формата : Default (MPEG)
Идентификатор кодека : XVID
Идентификатор кодека/Подсказка : XviD
Продолжительность : 1 ч. 17 м.
Битрейт : 1960 Кбит/сек
Ширина : 720 пикселей
Высота : 400 пикселей
Соотношение сторон : 16:9
Частота кадров : 25,000 кадров/сек
Цветовое пространство : YUV
Субдискретизация насыщенности : 4:2:0
Битовая глубина : 8 бит
Тип развёртки : Прогрессивная
Метод сжатия : С потерями
Бит/(Пиксели*Кадры) : 0.272
Размер потока : 1,06 Гбайт (77%)
Библиотека кодирования : XviD 65

Аудио #1
Идентификатор : 1
Формат : AC-3
Формат/Информация : Audio Coding 3
Расширение режима : CM (complete main)
Параметр Endianness формата : Big
Идентификатор кодека : 2000
Продолжительность : 1 ч. 17 м.
Вид битрейта : Постоянный
Битрейт : 192 Кбит/сек
Каналы : 2 канала
Расположение каналов : Front: L R
Частота : 48,0 КГц
Битовая глубина : 16 бит
Метод сжатия : С потерями
Размер потока : 107 Мбайт (8%)
Выравнивание : Разделение по промежуткам
Продолжительность промежутка : 40 мс. (1,00 видеокадр)
Время предзагрузки промежутка : 500 мс.

Аудио #2
Идентификатор : 2
Формат : AC-3
Формат/Информация : Audio Coding 3
Расширение режима : CM (complete main)
Параметр Endianness формата : Big
Идентификатор кодека : 2000
Продолжительность : 1 ч. 17 м.
Вид битрейта : Постоянный
Битрейт : 192 Кбит/сек
Каналы : 2 канала
Расположение каналов : Front: L R
Частота : 48,0 КГц
Битовая глубина : 16 бит
Метод сжатия : С потерями
Задержка видео : 7 с. 350 мс.
Размер потока : 107 Мбайт (8%)
Выравнивание : Разделение по промежуткам
Продолжительность промежутка : 40 мс. (1,00 видеокадр)
Время предзагрузки промежутка : 500 мс.

Аудио #3
Идентификатор : 3
Формат : AC-3
Формат/Информация : Audio Coding 3
Расширение режима : CM (complete main)
Параметр Endianness формата : Big
Идентификатор кодека : 2000
Продолжительность : 1 ч. 17 м.
Вид битрейта : Постоянный
Битрейт : 192 Кбит/сек
Каналы : 2 канала
Расположение каналов : Front: L R
Частота : 48,0 КГц
Битовая глубина : 16 бит
Метод сжатия : С потерями
Размер потока : 107 Мбайт (8%)
Выравнивание : Разделение по промежуткам
Продолжительность промежутка : 40 мс. (1,00 видеокадр)
Время предзагрузки промежутка : 500 мс.
Релиз от:



Скачать Воин-призрак.Ghost.Warrior.(Дж.Ларри.Кэрролл).[1985.фантастика.боевик.HDTVRip].[MVO]+[DVO]+[Оригинал].torrent без регистрации
Золото ЗОЛОТАЯ РАЗДАЧА! СКАЧАННОЕ НЕ ЗАСЧИТЫВАЕТСЯ! Золото
Дата: Зарегистрирован   [ Тип: внутренний ] Как тут cкачать?
MAGNET ссылка
MAGNET ссылка


Скачать .torrent

14 KB

Статус: проверено DHT
Скачан: торрент - 104 раз, раздача полностью - 7 раз
Размер: 1,39 GB
Оценка:  - (Голосов: 0)
Поблагодарили: 1
Поделиться ссылкой на эту раздачу с друзьями:
В контактеFacebookОдноклассникиTwitterLivejournalМой МирLiveinternet
 

 
Показать сообщения:    


Вы не можете начинать темы
Вы не можете отвечать на сообщения
Вы не можете редактировать свои сообщения
Вы не можете удалять свои сообщения
Вы не можете голосовать в опросах
Вы не можете прикреплять файлы к сообщениям
Вы можете скачивать файлы