Loading...
Error

Скачать Так поступают все / Cosi (Марк Джоффе (Йоффе)) [1996, комедия, DVDRip-AVC] [MVO]+[Sub] торрент без регистрации

 
Статистика раздачи
Размер:  1,55 GB   |    Скачан:  118 раз
Сидов:  1  [  0 KB/s  ]  
 
Автор Сообщение

Marsianka

[] 

Информация о фильме
Название: Так поступают все
Оригинальное название: Cosi
Год выхода: 1996
Жанр: комедия
Режиссер: Марк Джоффе (Йоффе) Mark Joffe
В ролях: Бен Мендельсон, Бэрри Отто, Тони Коллетт, Рэйчел Гриффитс , Аден Янг, Колин Фрилз, Джэки Уивер

О фильме:
Комедия о студенте неудачнике Льюисе, ставящем оперу Моцарт «Так поступают все женщины» в психиатрической клинике. Осуществить замысел оказывается непросто из за непредсказуемых «шалостей» актерской труппы.
Творческий процесс полностью захватывает Льюиса, заставляет его по иному взглянуть на подопечных и пересмотреть свои взгляды на мир. А кроме того, в жизнь постановщика приходит любовь



Страна: Австралия
Студия: Australian Film Finance Corporation (AFFC), Meridian Films, Miramax Films
Продолжительность: 01:39:54.995
Перевод: Профессиональный (многоголосый, закадровый) с SATRip

Файл
Кодек: h.264
Качество: DVDRip-AVC
Видео: 688x448 (16:9) @ 814x448 (анаморф), 23.976 fps, AVC, ~1827 Kbps, 0.247 bits/pixel
Английский, 48.0 KHz, AC3, 2 ch, 192 Kbps
Русский, 48.0 KHz, AC3, 2 ch, 192 Kbps
Субтитры: Английские, VobSub
Исходник видео R1 DVD9, трансфер далеко не самый лучший - мыло. Sharping не применялся.
Общее
Уникальный идентификатор : 184321784521467290184828376256272933156 (0x8AAB159CA2067CF7BBF410F64BA42124)
Полное имя : D:FilmsTak_postupaut_vse.1996.DVDRip-AVC.mkv
Формат : Matroska
Версия формата : Version 4 / Version 2
Размер файла : 1,55 Гбайт
Продолжительность : 1 ч. 39 м.
Общий поток : 2216 Кбит/сек
Дата кодирования : UTC 2014-01-15 16:53:49
Программа кодирования : mkvmerge v6.7.0 ('Back to the Ground') 64bit built on Jan 8 2014 15:10:52
Библиотека кодирования : libebml v1.3.0 + libmatroska v1.4.1

Видео
Идентификатор : 1
Формат : AVC
Формат/Информация : Advanced Video Codec
Профиль формата : High@L4.1
Параметр CABAC формата : Да
Параметр ReFrames формата : 16 кадров
Идентификатор кодека : V_MPEG4/ISO/AVC
Продолжительность : 1 ч. 39 м.
Битрейт : 1827 Кбит/сек
Ширина : 688 пикселей
Высота : 448 пикселей
Соотношение сторон : 16:9
Соотношение сторон в оригинале : 16:9
Режим частоты кадров : Постоянный
Частота кадров : 23,976 кадра/сек
Цветовое пространство : YUV
Субдискретизация насыщенности : 4:2:0
Битовая глубина : 8 бит
Тип развёртки : Прогрессивная
Бит/(Пиксели*Кадры) : 0.247
Размер потока : 1,25 Гбайт (81%)
Библиотека кодирования : x264 core 138 r2358 9e941d1
Настройки программы : cabac=1 / ref=16 / deblock=1:0:0 / analyse=0x3:0x133 / me=umh / subme=10 / psy=1 / psy_rd=1.05:0.10 / mixed_ref=1 / me_range=32 / chroma_me=1 / trellis=2 / 8x8dct=1 / cqm=0 / deadzone=21,11 / fast_pskip=0 / chroma_qp_offset=-3 / threads=8 / lookahead_threads=2 / sliced_threads=0 / nr=0 / decimate=0 / interlaced=0 / bluray_compat=0 / constrained_intra=0 / bframes=14 / b_pyramid=2 / b_adapt=2 / b_bias=0 / direct=3 / weightb=1 / open_gop=0 / weightp=2 / keyint=240 / keyint_min=23 / scenecut=40 / intra_refresh=0 / rc_lookahead=60 / rc=2pass / mbtree=0 / bitrate=1827 / ratetol=1.0 / qcomp=0.60 / qpmin=0 / qpmax=60 / qpstep=4 / cplxblur=20.0 / qblur=0.5 / vbv_maxrate=50000 / vbv_bufsize=62500 / nal_hrd=none / ip_ratio=1.40 / pb_ratio=1.30 / aq=1:1.00
Default : Нет
Forced : Нет
Коэффициенты матрицы : BT.601

Аудио #1
Идентификатор : 2
Формат : AC-3
Формат/Информация : Audio Coding 3
Профиль формата : Dolby Digital
Расширение режима : CM (complete main)
Параметр Endianness формата : Big
Идентификатор кодека : A_AC3
Продолжительность : 1 ч. 39 м.
Вид битрейта : Постоянный
Битрейт : 192 Кбит/сек
Каналы : 2 канала
Расположение каналов : Front: L R
Частота : 48,0 КГц
Битовая глубина : 16 бит
Метод сжатия : С потерями
Размер потока : 137 Мбайт (9%)
Язык : English
Default : Нет
Forced : Нет

Аудио #2
Идентификатор : 3
Формат : AC-3
Формат/Информация : Audio Coding 3
Расширение режима : CM (complete main)
Параметр Endianness формата : Big
Идентификатор кодека : A_AC3
Продолжительность : 1 ч. 39 м.
Вид битрейта : Постоянный
Битрейт : 192 Кбит/сек
Каналы : 2 канала
Расположение каналов : Front: L R
Частота : 48,0 КГц
Битовая глубина : 16 бит
Метод сжатия : С потерями
Размер потока : 137 Мбайт (9%)
Язык : Russian
Default : Да
Forced : Нет

Текст
Идентификатор : 4
Формат : VobSub
Режим смешивания : zlib
Идентификатор кодека : S_VOBSUB
Идентификатор кодека/Информация : The same subtitle format used on DVDs
Язык : English
Default : Нет
Forced : Нет

Меню
00:00:00.000 : en:Chapter 01
00:07:54.467 : en:Chapter 02
00:11:54.867 : en:Chapter 03
00:17:37.867 : en:Chapter 04
00:22:17.501 : en:Chapter 05
00:26:50.968 : en:Chapter 06
00:33:26.502 : en:Chapter 07
00:36:36.169 : en:Chapter 08
00:40:01.603 : en:Chapter 09
00:43:10.603 : en:Chapter 10
00:48:52.603 : en:Chapter 11
00:54:41.103 : en:Chapter 12
01:03:37.004 : en:Chapter 13
01:07:15.838 : en:Chapter 14
01:18:16.338 : en:Chapter 15
01:24:41.239 : en:Chapter 16
01:27:03.006 : en:Chapter 17
01:34:59.139 : en:Chapter 18
Релиз от: Temperest



Скачать Так.поступают.все.Cosi.(Марк.Джоффе.(Йоффе)).[1996.комедия.DVDRip-AVC].[MVO]+[Sub].torrent без регистрации
Золото ЗОЛОТАЯ РАЗДАЧА! СКАЧАННОЕ НЕ ЗАСЧИТЫВАЕТСЯ! Золото
Дата: Зарегистрирован   [ Тип: внутренний ] Как тут cкачать?
MAGNET ссылка
MAGNET ссылка


Скачать .torrent

16 KB

Статус: проверено DHT
Скачан: торрент - 118 раз, раздача полностью - 8 раз
Размер: 1,55 GB
Оценка:  - (Голосов: 0)
Поблагодарили: 0
Поделиться ссылкой на эту раздачу с друзьями:
В контактеFacebookОдноклассникиTwitterLivejournalМой МирLiveinternet
 

 
Показать сообщения:    


Вы не можете начинать темы
Вы не можете отвечать на сообщения
Вы не можете редактировать свои сообщения
Вы не можете удалять свои сообщения
Вы не можете голосовать в опросах
Вы не можете прикреплять файлы к сообщениям
Вы можете скачивать файлы