Loading...
Error

Скачать Операция "Оверлорд" / Повелитель / Overlord (Стюарт Купер / Stuart Cooper) [1975, драма, военный, DVDRip-AVC] [VO] (iDimo) + [Sub Rus] (badsteel) + Original (Eng) торрент без регистрации

 
Статистика раздачи
Размер:  1,45 GB   |    Скачан:  102 раза
Сидов:  1  [  0 KB/s  ]  
 
Автор Сообщение

leon030982

[] 

Операция "Оверлорд" / Overlord /

Год выпуска: 1975
Страна: Великобритания
Жанр: драма, военный
Продолжительность: 01:23:10
Перевод: Одноголосый (закадровый) (iDimo) по субтитрам badsteel
Cубтитры: русские (badsteel) (полные + форсированные, на слова песен)
Формат субтитров: softsub (SRT)
Оригинальная аудиодорожка: английский

Режиссер: Стюарт Купер / Stuart Cooper

В ролях: Брайан Стирнер / Brian Stirner, Дэвид Хэррис / Davyd Harries, Николас Болл / Nicholas Ball, Джули Нисэм / Julie Neesam, Сэм Сьюэлл / Sam Sewell, Джон Франклин-Роббинс / John Franklyn-Robbins, Стелла Тэннер / Stella Tanner, Хэри Шэклок / Harry Shacklock, Дэвид Шойер / David Scheuer, Йен Листон / Ian Liston, Лорна Льюис / Lorna Lewis, Стивен Риддл / Stephen Riddle, Джек Ле Уайт / Jack Le White, Марк Пенфолд / Mark Penfold, Микаэла Минелли / Micaela Minelli, Эльза Минелли / Elsa Minelli

Описание: Плавно переплетая архивную военную хронику и художественное повествование, Стюарт Купер рассказывает в этом фильме историю 21-летнего новобранца, прошедшего путь от призывного пункта до линии фронта в день высадки союзных войск у берегов Нормандии, с потрясающей достоверностью демонстрируя ужасающую и чуждую жизни природу войны. Впечатляющая работа Джона Элкотта, постоянного оператора Кубрика, делает картину в равной мере документом Второй Мировой и сновидческой силы размышлением о маленьком человеке, затерявшемся в огромной, непостижимой военной машине.


Сэмпл

Качество видео: DVDRip-AVC
Формат: MKV
Видео кодек: x264
Аудио кодек: AC3
Видео: 672x400 (1.68:1), 23,976 fps, 2118 kbps, 0.329 bit/pixel
Аудио 1: 48 kHz, AC3 Dolby Digital, 2 ch, 192 kbps Rus
Аудио 2: 48 kHz, AC3 Dolby Digital, 1 ch, 192 kbps Eng
За перевод спасибо badsteel, за озвучку - iDimo. Озвучка состоялась благодаря пользователям alinto, Arias, $Shorox, jasenka, edus67, eagle64, Lentyai80, сборы проводились на сайте videodemons. Наложение чистого голоса на оригинальную дорожку - Нордер.
Общее
Уникальный идентификатор : 251765082337345825415246088930768327338 (0xBD6830EC17452B1DAB34AB80D35612AA)
Полное имя : D:\Overlord (1975) [VO (iDimo) +Eng +subs] DVDRip.mkv
Формат : Matroska
Версия формата : Version 2
Размер файла : 1,45 Гбайт
Продолжительность : 1 ч. 23 м.
Общий поток : 2501 Кбит/сек
Дата кодирования : UTC 2014-01-15 16:09:07
Программа кодирования : mkvmerge v2.9.8 ('C'est le bon') built on Aug 13 2009 12:49:06
Библиотека кодирования : libebml v0.7.7 + libmatroska v0.8.1
Видео
Идентификатор : 1
Формат : AVC
Формат/Информация : Advanced Video Codec
Профиль формата : High@L4.1
Параметр CABAC формата : Да
Параметр ReFrames формата : 16 кадров
Идентификатор кодека : V_MPEG4/ISO/AVC
Продолжительность : 1 ч. 23 м.
Битрейт : 2118 Кбит/сек
Ширина : 672 пикселя
Высота : 400 пикселей
Соотношение сторон : 1,680
Режим частоты кадров : Постоянный
Частота кадров : 23,976 кадра/сек
Цветовое пространство : YUV
Субдискретизация насыщенности : 4:2:0
Битовая глубина : 8 бит
Тип развёртки : Прогрессивная
Бит/(Пиксели*Кадры) : 0.329
Размер потока : 1,20 Гбайт (83%)
Библиотека кодирования : x264 core 133 r2334 a3ac64b
Настройки программы : cabac=1 / ref=16 / deblock=1:-2:-1 / analyse=0x3:0x133 / me=umh / subme=10 / psy=1 / psy_rd=1.00:0.15 / mixed_ref=1 / me_range=32 / chroma_me=1 / trellis=2 / 8x8dct=1 / cqm=0 / deadzone=21,11 / fast_pskip=0 / chroma_qp_offset=-3 / threads=3 / lookahead_threads=1 / sliced_threads=0 / nr=0 / decimate=0 / interlaced=0 / bluray_compat=0 / constrained_intra=0 / bframes=14 / b_pyramid=2 / b_adapt=2 / b_bias=0 / direct=3 / weightb=1 / open_gop=0 / weightp=2 / keyint=240 / keyint_min=23 / scenecut=40 / intra_refresh=0 / rc_lookahead=60 / rc=2pass / mbtree=0 / bitrate=2118 / ratetol=1.0 / qcomp=0.60 / qpmin=10 / qpmax=51 / qpstep=4 / cplxblur=20.0 / qblur=0.5 / vbv_maxrate=50000 / vbv_bufsize=50000 / nal_hrd=none / ip_ratio=1.40 / pb_ratio=1.30 / aq=1:1.00
Язык : English
Default : Нет
Forced : Нет
Аудио #1
Идентификатор : 2
Формат : AC-3
Формат/Информация : Audio Coding 3
Расширение режима : CM (complete main)
Параметр Endianness формата : Big
Идентификатор кодека : A_AC3
Продолжительность : 1 ч. 23 м.
Вид битрейта : Постоянный
Битрейт : 192 Кбит/сек
Каналы : 2 канала
Расположение каналов : Front: L R
Частота : 48,0 КГц
Битовая глубина : 16 бит
Метод сжатия : С потерями
Размер потока : 114 Мбайт (8%)
Заголовок : VO (iDimo)
Язык : Russian
Default : Нет
Forced : Нет
Аудио #2
Идентификатор : 3
Формат : AC-3
Формат/Информация : Audio Coding 3
Расширение режима : CM (complete main)
Параметр Endianness формата : Big
Идентификатор кодека : A_AC3
Продолжительность : 1 ч. 23 м.
Вид битрейта : Постоянный
Битрейт : 192 Кбит/сек
Каналы : 1 канал
Расположение каналов : Front: C
Частота : 48,0 КГц
Битовая глубина : 16 бит
Метод сжатия : С потерями
Размер потока : 114 Мбайт (8%)
Язык : English
Default : Нет
Forced : Нет
Текст #1
Идентификатор : 4
Формат : UTF-8
Идентификатор кодека : S_TEXT/UTF8
Идентификатор кодека/Информация : UTF-8 Plain Text
Заголовок : forced
Язык : Russian
Default : Да
Forced : Нет
Текст #2
Идентификатор : 5
Формат : UTF-8
Идентификатор кодека : S_TEXT/UTF8
Идентификатор кодека/Информация : UTF-8 Plain Text
Заголовок : Rus [badsteel]
Язык : Russian
Default : Нет
Forced : Нет
69
00:13:35,291 --> 00:13:38,158
Ну как, полегчало?
70
00:13:38,261 --> 00:13:40,456
Не люблю иглы.
71
00:13:40,563 --> 00:13:43,999
Всего-то? Я не люблю
всю эту долбаную армию.
72
00:13:44,100 --> 00:13:48,127
Всем новобранцам, построение
у двери. В шеренгу. Шевелись!
73
00:13:48,237 --> 00:13:51,434
Пошли!
Абрахамс, Арлотт, Бэддоуз!
74
00:13:51,540 --> 00:13:54,805
Малькольм, Партридж, Сильвер, Янг.
75
00:13:54,910 --> 00:13:57,242
Так. Посмотрим на вас.
76
00:14:12,461 --> 00:14:14,793
Расскажи-ка, что там у тебя?
77
00:14:16,299 --> 00:14:19,598
Одна пара трусов. Одна пара
хлопковых подштанников.
78
00:14:19,702 --> 00:14:22,296
Один подшлемник. Одна пара
подтяжек. Одна пара ботинок.
79
00:14:22,405 --> 00:14:24,532
Шинель, носки, телогрейка, краги.
80
00:14:24,640 --> 00:14:26,972
Тканый ремень, ранцы -
большой и маленький.
81
00:14:27,076 --> 00:14:28,941
Походная форма, противогаз.
82
00:14:30,546 --> 00:14:33,982
Котелок, кружка, нож, ложка и вилка.
83
00:14:35,384 --> 00:14:37,944
Ещё что-нибудь?
84
00:14:38,054 --> 00:14:40,022
Не думаю.
85
00:14:42,124 --> 00:14:44,149
А это что?
86
00:14:44,260 --> 00:14:46,251
Протирка.
87
00:14:46,362 --> 00:14:48,262
Учи лучше.



Скачать Операция."Оверлорд".Повелитель.Overlord.(Стюарт.Купер.Stuart.Cooper).[1975.драма.военный.DVDRip-AVC].[VO].(iDimo).+.[Sub.Rus].(badsteel).+.Original.(Eng).torrent без регистрации
Золото ЗОЛОТАЯ РАЗДАЧА! СКАЧАННОЕ НЕ ЗАСЧИТЫВАЕТСЯ! Золото
Дата: Зарегистрирован   [ Тип: внутренний ] Как тут cкачать?
MAGNET ссылка
MAGNET ссылка


Скачать .torrent

15 KB

Статус: проверено DHT
Скачан: торрент - 102 раз, раздача полностью - 2 раз
Размер: 1,45 GB
Оценка:  - (Голосов: 0)
Поблагодарили: 1
Поделиться ссылкой на эту раздачу с друзьями:
В контактеFacebookОдноклассникиTwitterLivejournalМой МирLiveinternet
 

 
Показать сообщения:    


Вы не можете начинать темы
Вы не можете отвечать на сообщения
Вы не можете редактировать свои сообщения
Вы не можете удалять свои сообщения
Вы не можете голосовать в опросах
Вы не можете прикреплять файлы к сообщениям
Вы можете скачивать файлы