Loading...
Error

Скачать Старый жулик / Ye Olden Grafter (Дэвид Киркланд / David Kirkland) [1915, комедия, DVDRip] [Original Eng] торрент без регистрации

 
Статистика раздачи
Размер:  112 MB   |    Скачан:  91 раз
Сидов:  1  [  0 KB/s  ]  
 
Автор Сообщение

leon030982

[] 

Старый жулик / Ye Olden Grafter

Год выпуска: 1915
Страна: США
Жанр: комедия
Продолжительность: 00:06:43
Перевод: Не требуется [Немое кино]
Cубтитры: нет
Оригинальная аудиодорожка: английский

Режиссер: Дэвид Киркланд / David Kirkland

В ролях: Мак Суэйн, Гарри Гриббон, Мэй Буш, Эдвард Ф.Клайн, Билли Уолш, Гарри Уорд.

Описание: Пока девушка, сидя на скамейке, флиртует с молодым человеком, сидящим неподалеку от нее, старый жулик утаскивает у нее узелок с деньгами. Девушка в панике, но молодой человек берется забрать деньги у мошенника, для чего изобретает хитроумный способ. Старая комедия-фарс, через месяц будет 99 лет со дня выхода ее на экраны. В ней нет ни Лорела, ни Харди, но она близка по духу ранним их фильмам и найдена на коллекции ДВД, посвященной Лорелу и Харди. Главную роль жулика играет комик немого кино Мак Суэйн, известный нам в основном по партнерству в фильмах с великим Чаплиным.



Качество видео: DVDRip
Формат видео: AVI
Видео кодек: XviD
Аудио кодек: AC3
Видео: 640x480 (1.33:1), 23.976 fps, XviD build 46 ~2132 kbps avg, 0.29 bit/pixel
Аудио: 48 kHz, AC3 Dolby Digital, 2/0 (L,R) ch, ~192 kbps

Релиз
Внимание, фильм немой. Все интертитры, которых, впрочем, не очень много, как обычно, полностью переведены на русский. Рип сделан с ДВД из большой коллекции "The Larger World of Laurel and Hardy". Много фильмов с этой коллекции, в основном те, где играют Лорел или Харди, мы в свое время выпустили, но там еще немало фильмов, в которых играют люди, близкие по съемкам к Лорелу или Харди, и эти фильмы мы делали лишь в малой степени, теперь мы этот пробел убираем и будем потихоньку раздавать и эти фильмы. Музыкальное сопровождение имеется, оригинальное. Коллекцию ДВД предоставила шам. Рип сделал bankolya, перевод тоже его, boralx его чуть отредактировал.
General
Complete name : D:\Раздачи\Ye.Olden.Grafter.1915.rus.sh.avi
Format : AVI
Format/Info : Audio Video Interleave
File size : 112 MiB
Duration : 6mn 43s
Overall bit rate : 2 334 Kbps
Writing application : VirtualDubMod 1.5.10.2 (build 2540/release)
Writing library : VirtualDubMod build 2540/release
Video
ID : 0
Format : MPEG-4 Visual
Format profile : Advanced Simple@L5
Format settings, BVOP : 2
Format settings, QPel : No
Format settings, GMC : No warppoints
Format settings, Matrix : Default (H.263)
Codec ID : XVID
Codec ID/Hint : XviD
Duration : 6mn 43s
Bit rate : 2 132 Kbps
Width : 640 pixels
Height : 480 pixels
Display aspect ratio : 4:3
Frame rate : 23.976 fps
Color space : YUV
Chroma subsampling : 4:2:0
Bit depth : 8 bits
Scan type : Progressive
Compression mode : Lossy
Bits/(Pixel*Frame) : 0.289
Stream size : 103 MiB (91%)
Writing library : XviD 1.1.2 (UTC 2006-11-01)
Audio
ID : 1
Format : AC-3
Format/Info : Audio Coding 3
Mode extension : CM (complete main)
Codec ID : 2000
Duration : 6mn 43s
Bit rate mode : Constant
Bit rate : 192 Kbps
Channel(s) : 2 channels
Channel positions : Front: L R
Sampling rate : 48.0 KHz
Bit depth : 16 bits
Compression mode : Lossy
Stream size : 9.23 MiB (8%)
Alignment : Split accross interleaves
Interleave, duration : 42 ms (1.00 video frame)
Interleave, preload duration : 500 ms



Скачать Старый.жулик.Ye.Olden.Grafter.(Дэвид.Киркланд.David.Kirkland).[1915.комедия.DVDRip].[Original.Eng].torrent без регистрации
Золото ЗОЛОТАЯ РАЗДАЧА! СКАЧАННОЕ НЕ ЗАСЧИТЫВАЕТСЯ! Золото
Дата: Зарегистрирован   [ Тип: внутренний ] Как тут cкачать?
MAGNET ссылка
MAGNET ссылка


Скачать .torrent

18 KB

Статус: проверено DHT
Скачан: торрент - 91 раз, раздача полностью - 1 раз
Размер: 112 MB
Оценка:  - (Голосов: 0)
Поблагодарили: 0
Поделиться ссылкой на эту раздачу с друзьями:
В контактеFacebookОдноклассникиTwitterLivejournalМой МирLiveinternet
 

 
Показать сообщения:    


Вы не можете начинать темы
Вы не можете отвечать на сообщения
Вы не можете редактировать свои сообщения
Вы не можете удалять свои сообщения
Вы не можете голосовать в опросах
Вы не можете прикреплять файлы к сообщениям
Вы можете скачивать файлы