Loading...
Error

Скачать Связь / Touch (Сезон 1 понлый) (Френсис Лоуренс)[2012 г., драма, WEB-DLRip] [400p] [MVO] (Первый канал) торрент без регистрации

 
Статистика раздачи
Размер:  10,32 GB   |    Скачан:  330 раз
Сидов:  1  [  0 KB/s  ]  
 
Автор Сообщение

leon030982

[] 



Связь / Touch


Год выпуска: 2012
Страна: США
Жанр: драма
Продолжительность: ~ 45 минут
Перевод: Профессиональный (многоголосый, закадровый) - Первый канал
Субтитры: Русские, Английские
Режиссёр: Френсис Лоуренс
В ролях: Кифер Сазерленд, Карен Шенас-Дэвид, Девид де Латур, Масси Фурлан, Дэнни Гловер и др.
Описание: Он потерял любимую жену, и остался один воспитывать своего сына - аутиста. Все свое время он тратит на то, чтобы понять особое мышление своего сына и наладить с ним контакт, но до сих пор его попытки не приносили должного успеха, его ребенок оставался таким же молчаливым и замкнутым. Но в один момент Мартин понимает что его сын обладает особым даром гения - он предвидит события будущего, точки в которых действия одного человека могут подействовать на жизни других. Но выражает он свои видения в цифрах, расшифровать которые и предстоит его отцу, помешав тем самым случиться трагедии.
Качество: WEB-DLRip
Формат: AVI
Видео кодек: XviD
Аудио кодек: AC3
Видео: 720x400 (16:9), 23.976 fps, ~2000 kbps, ~0.290 bit/pixel
Аудио Rus: 48 kHz, 6 ch, ~384 kbps |Первый канал|
Аудио Eng: 48 kHz, 6 ch, ~384 kbps |Original|
Озвучка: Первый канал
Работа со звуком: Nez
Рип: LegendKiev

Код:

В 3-й серии дорожка Первого канала - 48 kHz, AC3, 2/0 (L,R) ch, ~192.00 kbps avg

/ Сэмпл / ImDB[/color] / Кинопоиск
Pilot / Пилот
1+1=3
Safety in Numbers / В цифрах спасение
Kite Strings / Нити воздушного змея
Entanglement / Переплетения
Lost & Found / Потерять и найти
Noosphere Rising / Расцвет ноосферы
Zone of Exclusion / Зона отчуждения
[b]Общее
Формат : AVI
Формат/Информация : Audio Video Interleave
Размер файла : 999 Мбайт
Продолжительность : 50 м.
Общий поток : 2782 Кбит/сек
Программа кодирования : VirtualDubMod 1.5.10.2 (build 2540/release)
Библиотека кодирования : VirtualDubMod build 2540/release
Видео
Идентификатор : 0
Формат : MPEG-4 Visual
Профиль формата : Advanced Simple@L5
Параметр BVOP формата : 1
Параметр QPel формата : Нет
Параметр GMC формата : Без точки перехода
Параметр матрицы формата : Выборочная
Идентификатор кодека : XVID
Идентификатор кодека/Подсказка : XviD
Продолжительность : 50 м.
Битрейт : 2000 Кбит/сек
Ширина : 720 пикс.
Высота : 400 пикс.
Соотношение сторон : 16:9
Частота кадров : 23,976 кадр/сек
Цветовое пространство : YUV
Подвыборка цветности : 4:2:0
Битовая глубина : 8 бит
Тип развёртки : Прогрессивная
Метод сжатия : С потерями
Бит/(Пиксели*Кадры) : 0.290
Размер потока : 719 Мбайт (72%)
Библиотека кодирования : XviD 65
Аудио #1
Идентификатор : 1
Формат : AC-3
Формат/Информация : Audio Coding 3
Расширение режима : CM (complete main)
Идентификатор кодека : 2000
Продолжительность : 50 м.
Вид битрейта : Постоянный
Битрейт : 384 Кбит/сек
Каналы : 6 каналов
Расположение каналов : Front: L C R, Side: L R, LFE
Частота : 48,0 КГц
Битовая глубина : 16 бит
Метод сжатия : С потерями
Размер потока : 138 Мбайт (14%)
Выравнивание : Разделение по промежуткам
Продолжительность промежутка : 42 мс. (1,00 видеокадр)
Время предзагрузки промежутка : 500 ms
Аудио #2
Идентификатор : 2
Формат : AC-3
Формат/Информация : Audio Coding 3
Расширение режима : CM (complete main)
Идентификатор кодека : 2000
Продолжительность : 50 м.
Вид битрейта : Постоянный
Битрейт : 384 Кбит/сек
Каналы : 6 каналов
Расположение каналов : Front: L C R, Side: L R, LFE
Частота : 48,0 КГц
Битовая глубина : 16 бит
Метод сжатия : С потерями
Размер потока : 138 Мбайт (14%)
Выравнивание : Разделение по промежуткам
Продолжительность промежутка : 42 мс. (1,00 видеокадр)
Время предзагрузки промежутка : 500 ms
Внимание! Раздача ведётся путём добавления новых серий; при каждом добавлении создётся новый торрент. Чтобы начать докачку новой серии, пользователям необходимо сделать следующее:Остановить скачивание.
Удалить старый торрент у себя из клиента (старые серии удалять не надо).
Скачать новый торрент и запустить его у себя в клиенте вместо старого, при этом указать клиенту путь в старую папку куда и должно происходить скачивание новых серий.Ваш клиент при этом должен произвести хеширование (проверку) старой папки (если не производит сам - помогите ему сделать это), и будет докачивать только те серии которых у вас ещё нет. Старые серии при этом не удаляются, а продолжают раздаваться!
Eсли вы уже удалили старые серии, то предотвратить повторную закачку старых серий можно, отжав галочку в соответсвующих местах при запуске нового торрента. По возможности, желательно не удалять старые серии как можно дольше чтобы релизёр не столько продолжал раздавать старые серии, а смог сконцентрироваться на новых.
[align=center] [/font]



Скачать Связь.Touch.(Сезон.1.понлый).(Френсис.Лоуренс)[2012.г.драма.WEB-DLRip].[400p].[MVO].(Первый.канал).torrent без регистрации
Золото ЗОЛОТАЯ РАЗДАЧА! СКАЧАННОЕ НЕ ЗАСЧИТЫВАЕТСЯ! Золото
Дата: Зарегистрирован   [ Тип: внутренний ] Как тут cкачать?
MAGNET ссылка
MAGNET ссылка


Скачать .torrent

55 KB

Статус: проверено DHT
Скачан: торрент - 330 раз, раздача полностью - 7 раз
Размер: 10,32 GB
Оценка:  5 (Голосов: 1)
Поблагодарили: 2
Поделиться ссылкой на эту раздачу с друзьями:
В контактеFacebookОдноклассникиTwitterLivejournalМой МирLiveinternet
 

 
Показать сообщения:    


Вы не можете начинать темы
Вы не можете отвечать на сообщения
Вы не можете редактировать свои сообщения
Вы не можете удалять свои сообщения
Вы не можете голосовать в опросах
Вы не можете прикреплять файлы к сообщениям
Вы можете скачивать файлы