Loading...
Error

Скачать Избиение младенцев / Slaughter Of The Innocents (Джеймс Гликенхаус) [1993, ужасы, триллер, криминал, детектив, BDRip-AVC] [AVO]x2+[Sub]+[Оригинал] торрент без регистрации

 
Статистика раздачи
Размер:  2,59 GB   |    Скачан:  102 раза
Сидов:  1  [  0 KB/s  ]  
 
Автор Сообщение

Marsianka

[] 

«A brutal slaying. An elusive killer. The chase is on»

Название: Избиение младенцев
Оригинальное название: Slaughter Of The Innocents
Страна: США
Жанр: ужасы, триллер, криминал, детектив
Год выпуска: 1993
Продолжительность: 01:43:40
Перевод: Авторский (одноголосый закадровый) А.Гаврилов, Авторский (одноголосый закадровый) Л.Володарский
Субтитры: английские
Оригинальная аудиодорожка: английский

Режиссер: Джеймс Гликенхаус / James Glickenhaus

В ролях: Скотт Гленн, Джесси Кэмерон-Гликенхаус, Шила Тауси, Зитто Казанн , Дарлэнн Флюгел, Армин Шимермэн, Зэйкс Мокэй, Хенри Браун, Кевин Сорбо

Описание:
Стандартную схему поиска серийного убийцы оживляют три обстоятельства. Во-первых, красивые космические ландшафты американского штата Юта, где совершены жуткие убийства детей. Во-вторых, экзотические религиозно-мистические мотивы и антураж самих злодеяний. И в третьих, незаурядная роль в расследовании мальчика-вундеркинда Джесси, сына сотрудника ФБР Стивена Бродерика. Не так уж мало плюсов для образца поточной продукции... Картина посвящена памяти Роберта Блэттнера. (Иванов М.)



Качество: BDRip-AVC
Контейнер: MKV
Видео: 1024x576; 23.976 fps; ~ 3000 Kbps; 0.212 Bits/Pixel
Аудио 1: Russian - 48 kHz, AC3, 2/0 Front: L R, ~ 192 kbps - Андрей Гаврилов
Аудио 2: Russian - 48 kHz, AC3, 2/0 Front: L R, ~ 192 kbps - Леонид Володарский
Аудио 3: English - 48 kHz, AC3, 2/0 Front: L R, ~ 192 kbps - Original
Format : Matroska
File size : 2.59 GiB
Duration : 1h 43mn
Overall bit rate : 3 576 Kbps
Movie name : In Cold Blood UNCUT 720p
Encoded date : UTC 2014-01-14 01:24:07
Writing application : mkvmerge v3.3.0 ('Language') built on Mar 24 2010 14:59:24
Writing library : libebml v0.8.0 + libmatroska v0.9.0

Video
ID : 1
Format : AVC
Format/Info : Advanced Video Codec
Format profile : High@L4.1
Format settings, CABAC : Yes
Format settings, ReFrames : 5 frames
Muxing mode : Container profile=Unknown@4.1
Codec ID : V_MPEG4/ISO/AVC
Duration : 1h 43mn
Bit rate : 3 000 Kbps
Width : 1 024 pixels
Height : 576 pixels
Display aspect ratio : 16:9
Frame rate : 23.976 fps
Color space : YUV
Chroma subsampling : 4:2:0
Bit depth : 8 bits
Scan type : Progressive
Bits/(Pixel*Frame) : 0.212
Stream size : 2.12 GiB (82%)
Title : Slaughter.of.the.Innocents.1993.
Writing library : x264 core 119 r2106 07efeb4
Encoding settings : cabac=1 / ref=5 / deblock=1:3:1 / analyse=0x3:0x133 / me=umh / subme=10 / psy=1 / psy_rd=1.00:0.15 / mixed_ref=1 / me_range=48 / chroma_me=1 / trellis=2 / 8x8dct=1 / cqm=0 / deadzone=21,11 / fast_pskip=1 / chroma_qp_offset=-3 / threads=3 / sliced_threads=0 / nr=0 / decimate=1 / interlaced=0 / bluray_compat=0 / constrained_intra=0 / bframes=7 / b_pyramid=2 / b_adapt=2 / b_bias=0 / direct=3 / weightb=1 / open_gop=1 / weightp=0 / keyint=250 / keyint_min=23 / scenecut=40 / intra_refresh=0 / rc_lookahead=60 / rc=2pass / mbtree=1 / bitrate=3000 / ratetol=1.0 / qcomp=0.60 / qpmin=0 / qpmax=69 / qpstep=4 / cplxblur=20.0 / qblur=0.5 / ip_ratio=1.40 / aq=1:1.00
Language : English
Color primaries : Generic film

Audio #1
ID : 2
Format : AC-3
Format/Info : Audio Coding 3
Mode extension : CM (complete main)
Codec ID : A_AC3
Duration : 1h 43mn
Bit rate mode : Constant
Bit rate : 192 Kbps
Channel(s) : 2 channels
Channel positions : Front: L R
Sampling rate : 48.0 KHz
Stream size : 142 MiB (5%)
Title : AVO Гаврилов @ AC3 2 ch. 192 kbps
Language : Russian

Audio #2
ID : 3
Format : AC-3
Format/Info : Audio Coding 3
Mode extension : CM (complete main)
Codec ID : A_AC3
Duration : 1h 43mn
Bit rate mode : Constant
Bit rate : 192 Kbps
Channel(s) : 2 channels
Channel positions : Front: L R
Sampling rate : 48.0 KHz
Stream size : 142 MiB (5%)
Title : AVO Володарский @ AC3 2 ch. 192 kbps
Language : Russian

Audio #3
ID : 4
Format : AC-3
Format/Info : Audio Coding 3
Mode extension : CM (complete main)
Codec ID : A_AC3
Duration : 1h 43mn
Bit rate mode : Constant
Bit rate : 192 Kbps
Channel(s) : 2 channels
Channel positions : Front: L R
Sampling rate : 48.0 KHz
Stream size : 142 MiB (5%)
Title : Original @ AC3 2 ch. 192 kbps
Language : English

Text
ID : 5
Format : UTF-8
Codec ID : S_TEXT/UTF8
Codec ID/Info : UTF-8 Plain Text
Title : (* UTF-8)
Language : English

Menu
00:00:00.000 : en:00:00:00.000
00:03:08.563 : en:00:03:08.563
00:11:03.997 : en:00:11:03.997
00:20:19.927 : en:00:20:19.927
00:25:27.818 : en:00:25:27.818
00:34:09.798 : en:00:34:09.798
00:41:20.853 : en:00:41:20.853
00:54:33.437 : en:00:54:33.437
01:05:14.452 : en:01:05:14.452
01:11:07.221 : en:01:11:07.221
01:22:41.039 : en:01:22:41.039
01:36:04.008 : en:01:36:04.008



Скачать Избиение.младенцев.Slaughter.Of.The.Innocents.(Джеймс.Гликенхаус).[1993.ужасы.триллер.криминал.детектив.BDRip-AVC].[AVO]x2+[Sub]+[Оригинал].torrent без регистрации
Золото ЗОЛОТАЯ РАЗДАЧА! СКАЧАННОЕ НЕ ЗАСЧИТЫВАЕТСЯ! Золото
Дата: Зарегистрирован   [ Тип: внутренний ] Как тут cкачать?
MAGNET ссылка
MAGNET ссылка


Скачать .torrent

13 KB

Статус: проверено DHT
Скачан: торрент - 102 раз, раздача полностью - 37 раз
Размер: 2,59 GB
Оценка:  - (Голосов: 0)
Поблагодарили: 2
Поделиться ссылкой на эту раздачу с друзьями:
В контактеFacebookОдноклассникиTwitterLivejournalМой МирLiveinternet
 

 
Показать сообщения:    


Вы не можете начинать темы
Вы не можете отвечать на сообщения
Вы не можете редактировать свои сообщения
Вы не можете удалять свои сообщения
Вы не можете голосовать в опросах
Вы не можете прикреплять файлы к сообщениям
Вы можете скачивать файлы