Loading...
Error

Скачать Вердикт / The Verdict (Дон Сигел / Don Siegel) [1946, фильм-нуар, триллер, драма, криминал, детектив, DVDRip] [MVO] + Original Eng торрент без регистрации

 
Статистика раздачи
Размер:  1,37 GB   |    Скачан:  96 раз
Сидов:  1  [  0 KB/s  ]  
 
Автор Сообщение

leon030982

[] 

Вердикт / The Verdict


Год выпуска: 1946
Страна: США
Жанр: фильм-нуар, триллер, драма, криминал, детектив
Продолжительность: 01:26:14
Перевод: Профессиональный (многоголосый, закадровый)
Cубтитры: нет
Оригинальная аудиодорожка: английский

Режиссер: Дон Сигел / Don Siegel

В ролях: Сидни Гринстрит /Sydney Greenstreet, Петер Лорре/ Peter Lorre, Джоан Лорринг/ Joan Lorring, Джордж Кулурис/George Coulouris, Розалинд Иван/ Rosalind Ivan, Пол Кэвэна/ Paul Cavanagh, Артур Шилдс /Arthur Shields, Мортон Лоури/ Morton Lowry, Холмс Херберт /Holmes Herbert, Арт Фостер/ Art Foster, Клайд Кук /Clyde Cook, Джимми Обри /Jimmy Aubrey, Леа Бейрд/ Leah Baird, Уилсон Бендж/ Wilson Benge, Бэрри Бернард /Barry Bernard, Билли Блэтчер /Billy Bletcher, Колин Кэмпбелл /Colin Campbell, Херберт Клифтон /Herbert Clifton, Бинг Конли /Bing Conley, Гарри Кординг/ Harry Cording, Ховард Дейвис/ Howard Davies, Бойд Дэвис /Boyd Davis, Харольд Де Бекер/ Harold De Becker, Марсель Де Ла Бросс/ Marcel De la Brosse, Сара Эдвардс /Sarah Edwards, Фернанда Элиску /Fernanda Eliscu, Херберт Эванс /Herbert Evans, Бетти Фэйрфакс/ Betty Fairfax, Аль Фергюсон/ Al Ferguson, Джон Голдсуорти/ John Goldsworthy

Описание: Экранизация романа Израэля Зангвилла "Загадочное происшествие на Биг Боу" ("The Big Bow Mystery”)
Инспектора Скотланд Ярда Гродмана увольняют с работы после 30 лет службы, так как по его вине обвинили и казнили невиновного человека. На его должность назначают инспектора Бакли, который обещает впредь не допускать подобных ошибок. Однако, вскоре происходит очередное убийство и полиция просит помощи у Гродмана. Тот решает помочь бывшим коллегам, но делает это необычным способом…


Рип and70311448

Качество видео: DVDRip
Формат видео: AVI
Видео кодек: XviD
Аудио кодек: AC3
Видео: 656x480 (1.37:1), 23.976 fps, XviD MPEG-4 ~1875 kbps avg, 0.25 bit/pixel
Аудио #1: 48 kHz, AC3 Dolby Digital, 2/0 (L,R) ch, ~192 kbps [MVO]
Аудио #2: 48 kHz, AC3 Dolby Digital, 2/0 (L,R) ch, ~192 kbps [ENG]
General
Complete name : D:\Раздачи\Verdict.1946.Xvid.DVDrip.fenixclub.avi
Format : AVI
Format/Info : Audio Video Interleave
File size : 1.37 GiB
Duration : 1h 26mn
Overall bit rate : 2 275 Kbps
Writing application : VirtualDubMod 1.5.10.2 (build 2540/release)
Writing library : VirtualDubMod build 2540/release
Video
ID : 0
Format : MPEG-4 Visual
Format profile : Advanced Simple@L5
Format settings, BVOP : 1
Format settings, QPel : No
Format settings, GMC : No warppoints
Format settings, Matrix : Custom
Codec ID : XVID
Codec ID/Hint : XviD
Duration : 1h 26mn
Bit rate : 1 876 Kbps
Width : 656 pixels
Height : 480 pixels
Display aspect ratio : 4:3
Frame rate : 23.976 fps
Color space : YUV
Chroma subsampling : 4:2:0
Bit depth : 8 bits
Scan type : Progressive
Compression mode : Lossy
Bits/(Pixel*Frame) : 0.249
Stream size : 1.13 GiB (82%)
Writing library : XviD 64
Audio #1
ID : 1
Format : AC-3
Format/Info : Audio Coding 3
Mode extension : CM (complete main)
Codec ID : 2000
Duration : 1h 26mn
Bit rate mode : Constant
Bit rate : 192 Kbps
Channel(s) : 2 channels
Channel positions : Front: L R
Sampling rate : 48.0 KHz
Bit depth : 16 bits
Compression mode : Lossy
Stream size : 118 MiB (8%)
Alignment : Split accross interleaves
Interleave, duration : 42 ms (1.00 video frame)
Interleave, preload duration : 500 ms
Audio #2
ID : 2
Format : AC-3
Format/Info : Audio Coding 3
Mode extension : CM (complete main)
Codec ID : 2000
Duration : 1h 26mn
Bit rate mode : Constant
Bit rate : 192 Kbps
Channel(s) : 2 channels
Channel positions : Front: L R
Sampling rate : 48.0 KHz
Bit depth : 16 bits
Compression mode : Lossy
Stream size : 118 MiB (8%)
Alignment : Split accross interleaves
Interleave, duration : 42 ms (1.00 video frame)
Interleave, preload duration : 500 ms



Скачать Вердикт.The.Verdict.(Дон.Сигел.Don.Siegel).[1946.фильм-нуар.триллер.драма.криминал.детектив.DVDRip].[MVO].+.Original.Eng.torrent без регистрации
Золото ЗОЛОТАЯ РАЗДАЧА! СКАЧАННОЕ НЕ ЗАСЧИТЫВАЕТСЯ! Золото
Дата: Зарегистрирован   [ Тип: внутренний ] Как тут cкачать?
MAGNET ссылка
MAGNET ссылка


Скачать .torrent

14 KB

Статус: проверено DHT
Скачан: торрент - 96 раз, раздача полностью - 2 раз
Размер: 1,37 GB
Оценка:  - (Голосов: 0)
Поблагодарили: 0
Поделиться ссылкой на эту раздачу с друзьями:
В контактеFacebookОдноклассникиTwitterLivejournalМой МирLiveinternet
 

 
Показать сообщения:    


Вы не можете начинать темы
Вы не можете отвечать на сообщения
Вы не можете редактировать свои сообщения
Вы не можете удалять свои сообщения
Вы не можете голосовать в опросах
Вы не можете прикреплять файлы к сообщениям
Вы можете скачивать файлы