Loading...
Error

Скачать Прослушка / The Wire (Полный 2-ой сезон) (Джо Чаппелль, Эрнест Р. Дикерсон, Кларк Джонсон) [2003, криминальная драма, WEB-DLRip] [AVO] (Ю. Сербин) + [MVO] (FOX) торрент без регистрации

 
Статистика раздачи
Размер:  11,75 GB   |    Скачан:  517 раз

Полного источника не было: 27 минут

 
Автор Сообщение

leon030982

[] 

Прослушка
The Wire
2 Сезон


Год выпуска: 2003
Страна: США | HBO
Жанр: криминальная драма
Продолжительность: 1x ~00:58:00
Перевод #1: Авторский (одноголосый закадровый) [Ю. Сербин]
Перевод #2: Профессиональный (многоголосный) [Fox Crime]
Субтитры: нет

Режиссёр: Джо Чаппелль, Эрнест Р. Дикерсон, Кларк Джонсон

В ролях: Доминик Уэст, Идрис Эльба, Джон Доумен, Уенделл Пирс, Лэнс Реддик, Дирдри Лавджой, Соня Сон, Сет Гиллиам, Доменик Ломбардоззи, Кларк Питерс, Андре Ройо

Описание: Подразделение полицейских в Балтиморе пытается с помощью специальных средств и мероприятий по прослушиванию и скрытой видеосъемке довести до суда расследование преступлений организованных преступных групп, которые занимаются незаконным распространением наркотиков.



Качество: WEB-DLRip
Формат: AVI
Видео кодек: XvID
Аудио кодек: AC3
Видео: XvID, 688x384, 23.976 fps, ~1798 kbps avg
Аудио #1: 48 kHz, DD, 5.1 ch, 384 kbps avg |Юрий Сербин|
Аудио #2: 48 kHz, AC3, 2/0 (L,R) ch, ~192.00 kbps avg - [Fox Crime]

Торент перезалит! Улучшен видеоряд и добавлен проф перевод от FOX
General
Complete name : E:\Прослушка_2_сезон_WEB-DLRip\The.Wire.S02E01_.avi
Format : AVI
Format/Info : Audio Video Interleave
File size : 1 001 MiB
Duration : 58mn 35s
Overall bit rate : 2 389 Kbps
Writing application : VirtualDubMod 1.5.10.2 (build 2540/release)
Writing library : VirtualDubMod build 2540/release

Video
ID : 0
Format : MPEG-4 Visual
Format profile : Advanced Simple@L5
Format settings, BVOP : 1
Format settings, QPel : No
Format settings, GMC : No warppoints
Format settings, Matrix : Custom
Codec ID : XVID
Codec ID/Hint : XviD
Duration : 58mn 35s
Source duration : 57mn 45s
Bit rate : 1 814 Kbps
Width : 688 pixels
Height : 384 pixels
Display aspect ratio : 16:9
Frame rate : 23.976 fps
Color space : YUV
Chroma subsampling : 4:2:0
Bit depth : 8 bits
Scan type : Progressive
Compression mode : Lossy
Bits/(Pixel*Frame) : 0.286
Stream size : 749 MiB (75%)
Writing library : XviD 73

Audio #1
ID : 1
Format : AC-3
Format/Info : Audio Coding 3
Mode extension : CM (complete main)
Format settings, Endianness : Big
Codec ID : 2000
Duration : 58mn 35s
Source duration : 57mn 46s
Bit rate mode : Constant
Bit rate : 384 Kbps
Channel(s) : 6 channels
Channel positions : Front: L C R, Side: L R, LFE
Sampling rate : 48.0 KHz
Compression mode : Lossy
Stream size : 159 MiB (16%)
Alignment : Split accross interleaves
Interleave, duration : 42 ms (1.00 video frame)
Interleave, preload duration : 500 ms

Audio #2
ID : 2
Format : AC-3
Format/Info : Audio Coding 3
Mode extension : CM (complete main)
Format settings, Endianness : Big
Codec ID : 2000
Duration : 58mn 35s
Source duration : 57mn 46s
Bit rate mode : Constant
Bit rate : 192 Kbps
Channel(s) : 2 channels
Channel positions : Front: L R
Sampling rate : 48.0 KHz
Compression mode : Lossy
Stream size : 79.3 MiB (8%)
Alignment : Aligned on interleaves
Interleave, duration : 42 ms (1.00 video frame)
Interleave, preload duration : 512 ms



Скачать Прослушка.The.Wire.(Полный.2-ой.сезон).(Джо.Чаппелль.Эрнест.Р.Дикерсон.Кларк.Джонсон).[2003.криминальная.драма.WEB-DLRip].[AVO].(Ю.Сербин).+.[MVO].(FOX).torrent без регистрации
Золото ЗОЛОТАЯ РАЗДАЧА! СКАЧАННОЕ НЕ ЗАСЧИТЫВАЕТСЯ! Золото
Дата: Зарегистрирован   [ Тип: внутренний ] Как тут cкачать?
MAGNET ссылка
MAGNET ссылка


Скачать .torrent

60 KB

Статус: проверено DHT
Скачан: торрент - 517 раз, раздача полностью - 1 раз
Размер: 11,75 GB
Оценка:  - (Голосов: 0)
Поблагодарили: 1
Поделиться ссылкой на эту раздачу с друзьями:
В контактеFacebookОдноклассникиTwitterLivejournalМой МирLiveinternet
 

 

leon030982

[] 

обновлено az
 

leon030982

[] 

7-я серия az
 

leon030982

[] 

Обновлено az
 

leon030982

[] 

Код:

Добавлена 9-я серия!
 

leon030982

[] 

Код:

Добавлена 10 серия 10.11.2014.
 

leon030982

[] 

Код:

Добавлена 11 серия
 

leon030982

[] 

Код:

Добавлена финальная 12 серия сезона
 
Показать сообщения:    


Вы не можете начинать темы
Вы не можете отвечать на сообщения
Вы не можете редактировать свои сообщения
Вы не можете удалять свои сообщения
Вы не можете голосовать в опросах
Вы не можете прикреплять файлы к сообщениям
Вы можете скачивать файлы