Loading...
Error

Скачать Нефть / There Will Be Blood (Пол Томас Андерсон / Paul Thomas Anderson) [2007 г., драма, HDRip] [AVO] (Ю.Сербин) торрент без регистрации

 
Статистика раздачи
Размер:  2,18 GB   |    Скачан:  123 раза

Полного источника не было: 19 минут

 
Автор Сообщение

leon030982

[] 

Нефть / There Will Be Blood
Год выпуска: 2007
Страна: США
Жанр: драма
Продолжительность: 2:38:25
Перевод: Авторский (одноголосный) [Ю.Сербин]
Cубтитры: нет


Режиссёр: Пол Томас Андерсон / Paul Thomas Anderson

В ролях:
Дэниэл Дэй-Льюис, Пол Дано, Кевин Дж. О’Коннор, Мартин Стрингер, Джейкоб Стрингер, Мэттью Браден Стрингер, Кьяран Хайндс, Диллон Фризье, Джозеф Массей, Бэрри Дел Шерман, Расселл Харвард, Харрисон Тейлор, Стоктон Тейлор, Коллин Фой, Пол Ф. Томпкинс, Кевин Брезнахан, Джим Мескимен, Эрика Салливан, Рэндолл Карвер, Коко Ли, Сидни МакКаллистер, Дэвид Уиллис, Кристин Олейничак, Келли Хилл, Джеймс Дауни, Дэн Суоллоу, Роберт Эрбер, Боб Белл, Дэвид Уильямс, Джой Роулз, Дэвид Уоршофски, Ганс Хоус, Боб Бок


Описание:
Экранизация романа «Нефть» классика американской литературы Эптона Синклера. Действие книги происходит в конце 1920-х в Калифорнии и описывает взлет нефтедобывающей компании, принадлежащей амбициозному и бездушному магнату Плейнвью.

IMDB: 8.2/10 (161,041 votes) Тор 250: 155
Кинопоиск: 7.759 (12 238)

Качество видео: HDRip [Исх. BDRip 1080p]
Формат видео: AVI
Видео кодек: XviD
Аудио кодек: АС3
Видео: 720x304 (2.37:1), 23.976 fps, XviD build 50 ~1512 kbps avg, 0.29 bit/pixel
Аудио: 48 kHz, AC3 Dolby Digital, 3/2 (L,C,R,l,r) + LFE ch, ~448.00 kbps avg
* Музыку к фильму написал Джонни Гринвуд из группы Radiohead. Это его первый подобный опыт в игровом кино. Длина саундтрека, написанного Джонни Гринвудом, составила всего лишь 37 минут.
* Фильм снимался с 5 июня по 25 августа 2006 года в Калифорнии, Техасе и Нью-Мексико.
* Для создания нужной интонации в голосе Дэниэла Плэйнвью, Дэниэл Дэй-Льюис слушал старые аудиозаписи режиссера, сценариста и актера Джона Хьюстона. Пол Томас Андерсон даже высылал старые документальные фильмы о Хьюстоне Дэй-Льюису, пока тот готовился к роли.
* Во время съемок в Техасе по соседству братья Коэны ваяли свой новый фильм «Старикам тут не место» (2007). В день съемок пожара на нефтяной вышке Пол Томас Андерсон и его команда так увлеклись процессом, что гигантское облако дыма добралось до территории Джоэла и Итана. Это вынудило братьев прервать съемки до следующего дня, пока весь дым не рассеялся. Спустя время «Нефть» и «Старикам тут не место» стали фаворитами гонки за Оскаром.
* Сына Дэниэла Плэнвью сыграл обыкновенный техасский школьник Диллон Фризье. После того, как команда Пола Томаса Андерсона попросила мать Диллона отпустить ее сына на съемки, женщина решила посмотреть фильм «Банды Нью-Йорка», где одну из ролей сыграл Дэниэл Дэй-Льюис, будущий экранный отец ее ребенка. Но после просмотра она впала в панику оттого, что ее чаду придется находиться рядом с человеком, который сыграл такого коварного убийцу и главаря банды по кличке «Мясник». Съемочной бригаде пришлось в срочном порядке высылать заботливой матери диск с фильмом «Эпоха невинности», где Дэй-Льюис играет порядочного мужчину.
* Дэниэл Дэй-Льюис согласился на роль Дэниэла Плэйнвью, так как очень любит предыдущий фильм Пола Томаса Андерсона «Любовь, сбивающая с ног». По словам продюсера Джоэнна Селлара, «Нефти» могло бы и не быть, если бы актер отказался от роли.
* Эмоциональную речь о построении школ и об обеспечении города хлебом, которую Дэниэл Дэй-Льюис произносит перед жителями Маленького Бостона, была его личной импровизацией.
Награды:
Оскар, 2008 год
Победитель: Лучшая мужская роль (Дэниэл Дэй-Льюис), Лучшая работа оператора
Номинации: Лучший фильм, Лучший режиссер (Пол Томас Андерсон), Лучший адаптированный сценарий, Лучшие декорации, Лучший монтаж, Лучший монтаж звука
Золотой глобус, 2008 год
Победитель: Лучшая мужская роль (драма) (Дэниэл Дэй-Льюис)
Номинации: Лучший фильм (драма)
Британская академия, 2008 год
Победитель: Лучшая мужская роль (Дэниэл Дэй-Льюис)
Номинации: Лучший фильм, Лучшая мужская роль второго плана (Пол Дано), Лучший режиссер (Пол Томас Андерсон), Лучший адаптированный сценарий, Лучшая работа оператора, Лучший звук, Лучший саундтрек, Лучшая работа художника-постановщика
Берлинский кинофестиваль, 2008 год
Победитель: Серебряный Медведь за лучшую режиссерскую работу (Пол Томас Андерсон), Серебряный Медведь за выдающийся художественный вклад в развитие кино (Джонни Гринвуд)
Номинации: Золотой Медведь
General
Complete name : E:\INTERNET\ NEFT.HDRip.2007.HDRip.[AVO] (SERBIN).avi
Format : AVI
Format/Info : Audio Video Interleave
Format profile : OpenDML
File size : 2.18 GiB
Duration : 2h 38mn
Overall bit rate : 1 967 Kbps
Writing application : VirtualDubMod 1.5.10.3 (build 2550/release)
Writing library : VirtualDubMod build 2550/release

Video
ID : 0
Format : MPEG-4 Visual
Format profile : Advanced Simple@L5
Format settings, BVOP : 1
Format settings, QPel : No
Format settings, GMC : No warppoints
Format settings, Matrix : Custom
Codec ID : XVID
Codec ID/Hint : XviD
Duration : 2h 38mn
Bit rate : 1 508 Kbps
Width : 720 pixels
Height : 304 pixels
Display aspect ratio : 2.35:1
Frame rate : 23.976 fps
Color space : YUV
Chroma subsampling : 4:2:0
Bit depth : 8 bits
Scan type : Progressive
Compression mode : Lossy
Bits/(Pixel*Frame) : 0.287
Stream size : 1.67 GiB (77%)
Writing library : XviD 1.2.1 (UTC 2008-12-04)

Audio
ID : 1
Format : AC-3
Format/Info : Audio Coding 3
Mode extension : CM (complete main)
Codec ID : 2000
Duration : 2h 38mn
Bit rate mode : Constant
Bit rate : 448 Kbps
Channel(s) : 6 channels
Channel positions : Front: L C R, Side: L R, LFE
Sampling rate : 48.0 KHz
Bit depth : 16 bits
Compression mode : Lossy
Stream size : 508 MiB (23%)
Alignment : Split accross interleaves
Interleave, duration : 42 ms (1.00 video frame)
Interleave, preload duration : 500 ms



Скачать Нефть.There.Will.Be.Blood.(Пол.Томас.Андерсон.Paul.Thomas.Anderson).[2007.г.драма.HDRip].[AVO].(Ю.Сербин).torrent без регистрации
Золото ЗОЛОТАЯ РАЗДАЧА! СКАЧАННОЕ НЕ ЗАСЧИТЫВАЕТСЯ! Золото
Дата: Зарегистрирован   [ Тип: внутренний ] Как тут cкачать?
MAGNET ссылка
MAGNET ссылка


Скачать .torrent

11 KB

Статус: проверено DHT
Скачан: торрент - 123 раз, раздача полностью - 74 раз
Размер: 2,18 GB
Оценка:  5 (Голосов: 1)
Поблагодарили: 0
Поделиться ссылкой на эту раздачу с друзьями:
В контактеFacebookОдноклассникиTwitterLivejournalМой МирLiveinternet
 

 
Показать сообщения:    


Вы не можете начинать темы
Вы не можете отвечать на сообщения
Вы не можете редактировать свои сообщения
Вы не можете удалять свои сообщения
Вы не можете голосовать в опросах
Вы не можете прикреплять файлы к сообщениям
Вы можете скачивать файлы