Loading...
Error

Скачать Стучи по дереву / Knock on Wood (Мелвин Фрэнк, Норман Панама) [1954, Комедия, DVDRip] [АVO] (Яковлев) торрент без регистрации

 
Статистика раздачи
Размер:  1,46 GB   |    Скачан:  92 раза
Сидов:  1  [  0 KB/s  ]  
 
Автор Сообщение

leon030982

[] 

Стучи по дереву / Knock on Wood


Год выпуска: 1954
Страна: США
Производство: Dena Productions, Paramount Pictures
Жанр: Комедия
Продолжительность: 01:44:15
Перевод: Авторский (одноголосный) [Яковлев]
Оригинальная аудиодорожка: Английская

Режиссер: Мелвин Фрэнк, Норман Панама

В ролях: Дэнни Кэй, Май Зеттерлинг, Торин Тэтчер, Дэвид Бёрнс, Леон Эскин, Эбнер Биберман, Гэвин Гордон, Отто Валдис, Стивен Герэй, Диана Адамс

Описание: Все идет не так у артиста-чревовещателя Джерри Моргана. Его отношения с подругой зашли в тупик, собственная кукла взбунтовалась, менеджер отправляет Джерри к психиатору, а тут еще гастроли в Цюрихе. Тем временем, изготовитель кукол Папинек, по совместительству шпион, решил использовать кукол Моргана, что бы переправить украденные секретные чертежи. За чертежами, надо сказать, охотятся очень многие. Так что в Цюрихе Джерри придется непросто.



Качество: DVDRip (Исходник: DVD9 R2)
Формат: AVI
Видео кодек: XviD
Аудио кодек: AC3
Видео: 720x400 (1.80:1), 23.976 fps, XviD ~1606 kbps avg, 0.23 bit/pixel
Аудио: #1: 48 kHz, AC3 2.0 ~192.00 kbps avg (RUS)
Аудио: #2: 48 kHz, AC3 2.0 ~192.00 kbps avg (ENG)
Общее
Полное имя : D:1АААСтучи по дереву.avi
Формат : AVI
Формат/Информация : Audio Video Interleave
Размер файла : 1,46 Гбайт
Продолжительность : 1 ч. 44 м.
Общий поток : 2006 Кбит/сек
Программа кодирования : VirtualDubMod 1.5.10.2 (build 2540/release)
Библиотека кодирования : VirtualDubMod build 2540/release

Видео
Идентификатор : 0
Формат : MPEG-4 Visual
Профиль формата : Advanced Simple@L5
Параметр BVOP формата : 2
Параметр QPel формата : Нет
Параметр GMC формата : Без точки перехода
Параметр матрицы формата : Default (MPEG)
Режим смешивания : Сжатый битовый поток
Идентификатор кодека : XVID
Идентификатор кодека/Подсказка : XviD
Продолжительность : 1 ч. 44 м.
Битрейт : 1607 Кбит/сек
Ширина : 720 пикселей
Высота : 400 пикселей
Соотношение сторон : 16:9
Частота кадров : 23,976 кадра/сек
Цветовое пространство : YUV
Субдискретизация насыщенности : 4:2:0
Битовая глубина : 8 бит
Тип развёртки : Прогрессивная
Метод сжатия : С потерями
Бит/(Пиксели*Кадры) : 0.233
Размер потока : 1,17 Гбайт (80%)
Библиотека кодирования : XviD 1.2.1 (UTC 2008-12-04)

Аудио #1
Идентификатор : 1
Формат : AC-3
Формат/Информация : Audio Coding 3
Расширение режима : CM (complete main)
Параметр Endianness формата : Big
Идентификатор кодека : 2000
Продолжительность : 1 ч. 44 м.
Вид битрейта : Постоянный
Битрейт : 192 Кбит/сек
Каналы : 2 канала
Расположение каналов : Front: L R
Частота : 48,0 КГц
Битовая глубина : 16 бит
Метод сжатия : С потерями
Размер потока : 143 Мбайт (10%)
Выравнивание : Разделение по промежуткам
Продолжительность промежутка : 42 мс. (1,00 видеокадр)
Время предзагрузки промежутка : 500 мс.

Аудио #2
Идентификатор : 2
Формат : AC-3
Формат/Информация : Audio Coding 3
Расширение режима : CM (complete main)
Параметр Endianness формата : Big
Идентификатор кодека : 2000
Продолжительность : 1 ч. 44 м.
Вид битрейта : Постоянный
Битрейт : 192 Кбит/сек
Каналы : 1 канал
Расположение каналов : Front: C
Частота : 48,0 КГц
Битовая глубина : 16 бит
Метод сжатия : С потерями
Размер потока : 143 Мбайт (10%)
Выравнивание : Разделение по промежуткам
Продолжительность промежутка : 42 мс. (1,00 видеокадр)
Время предзагрузки промежутка : 500 мс.


Релиз группа:

Автор рипа:



Скачать Стучи.по.дереву.Knock.on.Wood.(Мелвин.Фрэнк.Норман.Панама).[1954.Комедия.DVDRip].[АVO].(Яковлев).torrent без регистрации
Золото ЗОЛОТАЯ РАЗДАЧА! СКАЧАННОЕ НЕ ЗАСЧИТЫВАЕТСЯ! Золото
Дата: Зарегистрирован   [ Тип: внутренний ] Как тут cкачать?
MAGNET ссылка
MAGNET ссылка


Скачать .torrent

15 KB

Статус: проверено DHT
Скачан: торрент - 92 раз, раздача полностью - 16 раз
Размер: 1,46 GB
Оценка:  - (Голосов: 0)
Поблагодарили: 0
Поделиться ссылкой на эту раздачу с друзьями:
В контактеFacebookОдноклассникиTwitterLivejournalМой МирLiveinternet
 

 
Показать сообщения:    


Вы не можете начинать темы
Вы не можете отвечать на сообщения
Вы не можете редактировать свои сообщения
Вы не можете удалять свои сообщения
Вы не можете голосовать в опросах
Вы не можете прикреплять файлы к сообщениям
Вы можете скачивать файлы