Loading...
Error

Скачать Бофор / Beaufort (Джозеф Седар) [2007, боевик, драма, военный, BDRip-AVC] [DVO]+[Sub]x2 торрент без регистрации

 
Статистика раздачи
Размер:  2,05 GB   |    Скачан:  106 раз
Сидов:  1  [  0 KB/s  ]  
 
Автор Сообщение

Marsianka

[] 

Бофор / Beaufort (2007) BDRip-AVC

Информация о фильме
Название: Бофор
Оригинальное название: Beaufort
Год выхода: 2007
Жанр: боевик, драма, военный
Режиссер: Джозеф Седар

В ролях: Алон Абутбул, Ади Адуан, Яаков Ахимейр, Гай Априат, Ави Айун, Итамар Барзани, Даниэль Беднар, Алон Бен Дэвид, Моше Бен Шушан, Янив Бен Ицхак...

О фильме: История 22-летнего командира блокпоста «Бофор» Лираза Либерти и его солдат, разворачивающаяся за пару месяцев до того, как Израиль вывел свои войска из Ливана. Но это история не о войне, а о бегстве. История, в которой у врага нет лица, только лишь бомбы падают с небес, в то время как молодые солдаты, не смотря на панику, должны выполнять свою миссию, должны удерживать блокпост до самого последнего вздоха. И когда Лираз закладывает взрывчатку под то самое здание, защищая которое погибло столько его друзей, у него на глазах рушится все, чему его учили как офицера, а совсем рядом, объятые ужасом войны, умирают его бойцы



Страна: Израиль
Продолжительность: 02:11:30
Перевод: Профессиональный (двухголосый закадровый) НТВ+

Файл
Кодек: x.264
Качество: BDRip-AVC
Видео: 912x496 (1,85:1), 23,976 fps, 1786 kbps, 0.165 bit/pixel
Звук: 48 kHz, AC3 Dolby Digital, 6 ch, ~448.00 kbps
Субтитры: Русские, Английские (отключаемые)

&
Общее
Уникальный идентификатор : 170856039633114651162777090023439712091 (0x8089AD21663826A4BA0DEC4A7DC7BF5B)
Полное имя : D:TorrentBeaufort.2007.BDRip-AVC.mkv
Формат : Matroska
Версия формата : Version 4 / Version 2
Размер файла : 2,05 Гбайт
Продолжительность : 2 ч. 11 м.
Общий поток : 2236 Кбит/сек
Название фильма : Бофор / Beaufort (2007) BDRip-AVC rip by Rulya74
Дата кодирования : UTC 2014-01-17 20:17:28
Программа кодирования : mkvmerge v6.6.0 ('The Edge Of The In Between') built on Dec 1 2013 17:55:00
Библиотека кодирования : libebml v1.3.0 + libmatroska v1.4.1

Видео
Идентификатор : 1
Формат : AVC
Формат/Информация : Advanced Video Codec
Профиль формата : High@L4.1
Параметр CABAC формата : Да
Параметр ReFrames формата : 12 кадров
Идентификатор кодека : V_MPEG4/ISO/AVC
Продолжительность : 2 ч. 11 м.
Битрейт : 1786 Кбит/сек
Ширина : 912 пикселей
Высота : 496 пикселей
Соотношение сторон : 1,85:1
Режим частоты кадров : Постоянный
Частота кадров : 23,976 кадра/сек
Цветовое пространство : YUV
Субдискретизация насыщенности : 4:2:0
Битовая глубина : 8 бит
Тип развёртки : Прогрессивная
Бит/(Пиксели*Кадры) : 0.165
Размер потока : 1,60 Гбайт (78%)
Библиотека кодирования : x264 core 138 r2358 9e941d1
Настройки программы : cabac=1 / ref=12 / deblock=1:-1:-1 / analyse=0x3:0x112 / me=umh / subme=11 / psy=1 / psy_rd=1.10:0.40 / mixed_ref=1 / me_range=48 / chroma_me=1 / trellis=2 / 8x8dct=1 / cqm=0 / deadzone=21,11 / fast_pskip=0 / chroma_qp_offset=-4 / threads=12 / lookahead_threads=1 / sliced_threads=0 / nr=0 / decimate=1 / interlaced=0 / bluray_compat=0 / constrained_intra=0 / bframes=13 / b_pyramid=2 / b_adapt=1 / b_bias=0 / direct=3 / weightb=1 / open_gop=0 / weightp=2 / keyint=240 / keyint_min=23 / scenecut=40 / intra_refresh=0 / rc_lookahead=40 / rc=2pass / mbtree=1 / bitrate=1786 / ratetol=1.0 / qcomp=0.60 / qpmin=0 / qpmax=69 / qpstep=4 / cplxblur=20.0 / qblur=0.5 / vbv_maxrate=62500 / vbv_bufsize=78125 / nal_hrd=none / ip_ratio=1.40 / aq=1:1.00
Default : Да
Forced : Нет

Аудио
Идентификатор : 2
Формат : AC-3
Формат/Информация : Audio Coding 3
Расширение режима : CM (complete main)
Параметр Endianness формата : Big
Идентификатор кодека : A_AC3
Продолжительность : 2 ч. 11 м.
Вид битрейта : Постоянный
Битрейт : 448 Кбит/сек
Каналы : 6 каналов
Расположение каналов : Front: L C R, Side: L R, LFE
Частота : 48,0 КГц
Битовая глубина : 16 бит
Метод сжатия : С потерями
Размер потока : 421 Мбайт (20%)
Заголовок : Профессиональный (двухголосый закадровый) НТВ+
Язык : Russian
Default : Да
Forced : Нет

Текст #1
Идентификатор : 3
Формат : UTF-8
Идентификатор кодека : S_TEXT/UTF8
Идентификатор кодека/Информация : UTF-8 Plain Text
Язык : Russian
Default : Да
Forced : Нет

Текст #2
Идентификатор : 4
Формат : UTF-8
Идентификатор кодека : S_TEXT/UTF8
Идентификатор кодека/Информация : UTF-8 Plain Text
Язык : English
Default : Нет
Forced : Нет

Меню
00:00:00.000 : en:00:00:00.000
00:05:23.323 : en:00:05:23.323
00:10:34.634 : en:00:10:34.634
00:16:25.985 : en:00:16:25.985
00:20:18.217 : en:00:20:18.217
00:24:31.470 : en:00:24:31.470
00:32:54.973 : en:00:32:54.973
00:39:25.363 : en:00:39:25.363
00:45:12.919 : en:00:45:12.919
00:55:32.329 : en:00:55:32.329
01:06:50.632 : en:01:06:50.632
01:15:25.521 : en:01:15:25.521
01:25:13.525 : en:01:25:13.525
01:31:55.719 : en:01:31:55.719
01:40:00.161 : en:01:40:00.161
01:46:30.593 : en:01:46:30.593
01:52:22.736 : en:01:52:22.736
01:55:22.916 : en:01:55:22.916
02:01:47.300 : en:02:01:47.300
02:06:21.574 : en:02:06:21.574



Скачать Бофор.Beaufort.(Джозеф.Седар).[2007.боевик.драма.военный.BDRip-AVC].[DVO]+[Sub]x2.torrent без регистрации
Золото ЗОЛОТАЯ РАЗДАЧА! СКАЧАННОЕ НЕ ЗАСЧИТЫВАЕТСЯ! Золото
Дата: Зарегистрирован   [ Тип: внутренний ] Как тут cкачать?
MAGNET ссылка
MAGNET ссылка


Скачать .torrent

11 KB

Статус: проверено DHT
Скачан: торрент - 106 раз, раздача полностью - 4 раз
Размер: 2,05 GB
Оценка:  - (Голосов: 0)
Поблагодарили: 1
Поделиться ссылкой на эту раздачу с друзьями:
В контактеFacebookОдноклассникиTwitterLivejournalМой МирLiveinternet
 

 
Показать сообщения:    


Вы не можете начинать темы
Вы не можете отвечать на сообщения
Вы не можете редактировать свои сообщения
Вы не можете удалять свои сообщения
Вы не можете голосовать в опросах
Вы не можете прикреплять файлы к сообщениям
Вы можете скачивать файлы